<svg xmlns="http://www.w3.org/2000/svg"><defs><font id="tuffigo" horiz-adv-x="1024"><font-face units-per-em="1024" ascent="960" descent="-64"/><glyph horiz-adv-x="512"/><glyph unicode="" glyph-name="next" d="M320 17.6L750.4 448 320 878.4l-46.4-44.8L659.2 448 273.6 62.4z"/><glyph unicode="" glyph-name="prev" d="M704 17.6L273.6 448 704 878.4l46.4-44.8L364.8 448 750.4 62.4z"/><glyph unicode="" glyph-name="avatar" d="M541.76 354.24c-20.633 28.911-53.563 47.898-90.991 49.274l-.209.006H448c-46.108.011-84.135 34.6-89.557 79.247l-.043.433c14.036 10.507 26.074 22.646 36.145 36.323l.335.477c21.799 30.18 36.655 66.745 41.489 106.404l.111 1.116a25.616 25.616 0 014.093 5.932l.067.148c8.863 20.798 14.035 44.989 14.08 70.382V704c.059 1.651.093 3.59.093 5.537 0 89.554-71.017 162.52-159.806 165.655l-.286.008c-23.901-.113-46.454-5.772-66.474-15.754l.874.394c-8.518-.864-16.24-2.33-23.714-4.394l.994.234c-72.64-20.48-114.24-109.44-91.84-197.12 2.789-10.415 5.74-19.04 9.183-27.411l-.543 1.491c1.039-2.328 2.325-4.332 3.866-6.11l-.026.03c6.187-58.033 35.161-108.304 77.667-142.4l.413-.32c-5.467-45.256-43.636-79.988-89.919-80h-1.921C50.235 401.536.001 349.871.001 286.474v-.078.004V160c0-11.841 9.599-21.44 21.44-21.44h376.64c11.841 0 21.44 9.599 21.44 21.44v.002c0 11.664-9.456 21.12-21.12 21.12-.113 0-.225-.001-.337-.003H42.561v105.28c.181 41.282 33.598 74.699 74.863 74.88h1.937c15.883.424 30.89 3.676 44.698 9.267l-.858-.307 100.8-146.24c3.923-5.599 10.346-9.214 17.612-9.214a21.34 21.34 0 0112.218 3.82l-.071-.046a29.356 29.356 0 015.39 5.372l.05.068 101.12 145.92c12.851-5.293 27.749-8.546 43.355-8.957l.165-.003h2.24c25.201-.093 47.457-12.621 60.962-31.764l.158-.236c3.896-5.416 10.181-8.902 17.28-8.902 11.721 0 21.222 9.501 21.222 21.222 0 4.622-1.477 8.898-3.985 12.383l.043-.063zM218.88 815.36c5.169 1.483 11.182 2.511 17.374 2.87l.226.01c3.281.105 6.348.921 9.085 2.297l-.125-.057c14.22 7.267 31.018 11.526 48.811 11.526.39 0 .779-.002 1.169-.006h-.06c65.06-3.491 116.493-57.096 116.493-122.714 0-.621-.005-1.241-.014-1.86l.001.094c-12.693 9.549-28.709 15.311-46.068 15.36H254.08l-.165-.001c-10.621 0-19.712 6.55-23.455 15.831l-.06.17c-3.76 9.319-12.731 15.776-23.209 15.776-11.544 0-21.258-7.837-24.111-18.482l-.04-.174c-6.068-21.489-16.205-40.123-29.613-55.889l.173.209c-10.88 61.76 16.96 119.68 65.28 135.04zm-49.92-180.8c18.215 16.859 33.074 37.041 43.664 59.624l.496 1.176c11.218-8.354 25.336-13.392 40.628-13.44H365.44c.786.069 1.701.108 2.625.108 13.084 0 24.335-7.853 29.295-19.103l.081-.205c.015-.911.024-1.987.024-3.064 0-42.438-13.303-81.769-35.966-114.051l.423.635c-17.503-26.624-46.701-44.321-80.112-45.753l-.208-.007c-30.532 1.165-57.275 16.418-74.05 39.407l-.19.273c-20.529 26.068-34.34 58.319-38.322 93.549l-.078.851zM281.6 273.92L200 391.68c21.842 18.179 37.7 42.875 44.61 71.083l.19.917c11.044-3.649 23.756-5.753 36.96-5.753s25.916 2.104 37.82 5.996l-.86-.243c7.033-28.984 22.779-53.57 44.268-71.508l.212-.172zm629.44 11.2h-2.24c-46.173.308-84.178 34.881-89.873 79.547l-.047.453c27.423 21.341 48.718 49.323 61.618 81.571l.462 1.309c2.694-8.779 10.729-15.051 20.229-15.051 2.261 0 4.438.355 6.48 1.013l-.149-.042c4.331 1.315 7.948 3.896 10.522 7.308l.038.052c27.369 36.718 43.818 82.979 43.818 133.081 0 54.131-19.201 103.777-51.163 142.5l.305-.381c-28.326 34.434-70.488 56.595-117.86 57.915l-.22.005H784c-19.531 9.152-42.413 14.493-66.541 14.493-1.92 0-3.831-.034-5.735-.101l.276.008c-54.622-2.56-102.307-30.155-132.131-71.492l-.349-.508c-30.579-42.08-48.918-94.774-48.918-151.752 0-12.729.915-25.245 2.684-37.484l-.166 1.397c3.509-26.776 10.818-51.067 21.433-73.487l-.633 1.487c3.259-7.486 10.593-12.624 19.126-12.624 3.286 0 6.394.762 9.156 2.119l-.122-.054c3.964 1.733 7.157 4.616 9.23 8.225l.05.095c2.186 3.712 4.299 6.845 6.579 9.846l-.179-.246c9.077-29.459 23.561-54.903 42.44-76.392l-.2.232c7.546-8.534 15.828-16.105 24.845-22.735l.435-.305c-5.454-45.148-43.45-79.82-89.582-80h-2.258c-62.888-2.468-112.973-53.895-113.28-117.09V41.602c0-11.841 9.599-21.44 21.44-21.44h520.96c11.841 0 21.44 9.599 21.44 21.44v126.474c0 63.221-50.091 114.742-112.75 117.04l-.21.006zm-330.88 224c-1.827 6.849-3.508 15.42-4.677 24.152l-.123 1.128c-1.222 7.062-1.92 15.194-1.92 23.49v.201-.01a196.57 196.57 0 00-.266 10.422c0 45.859 15.12 88.187 40.647 122.27l-.381-.532c22.842 31.715 58.829 52.731 99.816 55.025l.344.015c.705.014 1.535.022 2.368.022 19.858 0 38.639-4.615 55.328-12.83l-.736.328c2.624-1.433 5.747-2.276 9.067-2.276.413 0 .822.013 1.228.039l-.056-.003h11.52c34.922-.988 65.816-17.414 86.23-42.663l.17-.217c24.569-29.175 39.704-67.003 40.318-108.349l.002-.131c.082-2.053.129-4.464.129-6.885 0-20.419-3.326-40.06-9.466-58.413l.377 1.298-6.72 16c-20.012 43.024-54.17 76.664-96.381 95.514l-1.219.486c-2.541 1.168-5.512 1.849-8.643 1.849-8.753 0-16.262-5.324-19.465-12.911l-.052-.139c-3.112-8.553-6.562-15.835-10.594-22.735l.354.655c-11.262-19.307-31.874-32.075-55.469-32.075-1.087 0-2.168.027-3.242.081l.151-.006h-11.52c-19.367-.692-37.637-4.505-54.612-10.951l1.172.391c-24.916-9.92-46.204-24.016-64.019-41.618l.019.018zm52.48-11.52c18.436 12.587 41.039 20.373 65.413 21.115l.187.005h8.64c1.341-.061 2.913-.096 4.493-.096 38.92 0 72.922 21.055 91.237 52.395l.27.5 3.52 6.08c20.024-12.493 36.382-29.056 48.274-48.631l.366-.649v-1.92c-2.429-39.832-16.855-75.884-39.673-105.055l.313.415c-17.086-23.219-43.956-38.379-74.408-39.356l-.152-.004c-49.92 0-96 47.68-109.44 115.2zM704 344.96c11.044-3.649 23.756-5.753 36.96-5.753s25.916 2.104 37.82 5.996l-.86-.243c9.087-36.58 32.29-66.576 63.351-84.456l.649-.344c-12.476-44.65-52.797-76.856-100.64-76.856s-88.164 32.207-100.464 76.122l-.176.734c31.71 18.224 54.913 48.22 63.806 83.879l.194.921zM981.44 64H503.36v104c0 41.178 33.382 74.56 74.56 74.56h2.24c7.911.425 15.272 1.339 22.465 2.724l-1.025-.164c18.786-60.975 74.627-104.523 140.64-104.523s121.854 43.548 140.363 103.482l.277 1.041c6.258-1.221 13.731-2.135 21.338-2.542l.422-.018h1.92l.32.001c41.178 0 74.56-33.382 74.56-74.56V168z"/><glyph unicode="" glyph-name="circle" d="M915.2 690.56c-60.052-.048-108.716-48.741-108.716-108.8 0-22.009 6.535-42.491 17.77-59.613l-.254.413-117.44-117.44c-16.883 11.487-37.721 18.34-60.16 18.34s-43.277-6.853-60.536-18.581l.376.241-118.4 118.72c11.131 16.791 17.76 37.409 17.76 59.575 0 60.089-48.711 108.8-108.8 108.8S268 643.504 268 583.415c0-22.166 6.629-42.784 18.012-59.979l-.252.404-117.44-118.72c-16.72 11.001-37.221 17.549-59.251 17.549-60.089 0-108.8-48.711-108.8-108.8s48.711-108.8 108.8-108.8 108.8 48.711 108.8 108.8c0 22.03-6.548 42.531-17.803 59.663l.254-.412 117.44 117.44c16.664-11.132 37.158-17.765 59.2-17.765s42.535 6.633 59.592 18.012l-.392-.246 119.36-119.36c-10.164-16.209-16.193-35.909-16.193-57.018 0-59.912 48.568-108.48 108.48-108.48s108.48 48.568 108.48 108.48c0 21.907-6.494 42.297-17.661 59.351l.254-.413 117.44 117.44c16.737-11.032 37.266-17.599 59.328-17.599 60.089 0 108.8 48.711 108.8 108.8s-48.711 108.8-108.8 108.8l-.472-.001h.024zm-806.08-440c-35.346 0-64 28.654-64 64s28.654 64 64 64c35.346 0 64-28.654 64-64 0-35.346-28.654-64-64-64zm267.52 267.52c-35.346 0-64 28.654-64 64s28.654 64 64 64c35.346 0 64-28.654 64-64 0-35.346-28.654-64-64-64zm270.72-267.52c-35.346 0-64 28.654-64 64s28.654 64 64 64c35.346 0 64-28.654 64-64 0-35.346-28.654-64-64-64zM915.2 518.08c-35.346 0-64 28.654-64 64s28.654 64 64 64c35.346 0 64-28.654 64-64 0-35.346-28.654-64-64-64zM353.6 416c-4.105 4.073-9.759 6.589-16 6.589s-11.895-2.517-16.001-6.591l.001.001-45.44-47.04a22.556 22.556 0 01-6.627-16c0-12.497 10.131-22.627 22.627-22.627a22.56 22.56 0 0116 6.627l45.44 47.04c4.232 4.03 6.864 9.708 6.864 16s-2.632 11.97-6.855 15.991l-.009.009zm394.24 142.08c-4.105 4.073-9.759 6.589-16 6.589s-11.895-2.517-16.001-6.591l.001.001-43.84-46.08a22.556 22.556 0 01-6.627-16c0-12.497 10.131-22.627 22.627-22.627a22.56 22.56 0 0116 6.627l45.76 45.76c4.073 4.105 6.589 9.759 6.589 16s-2.517 11.895-6.591 16.001l.001-.001z"/><glyph unicode="" glyph-name="corn" d="M994.24 960c-16.613 0-30.08-13.467-30.08-30.08V669.76L817.6 570.24v316.48c0 16.613-13.467 30.08-30.08 30.08s-30.08-13.467-30.08-30.08V570.24l-146.56 99.52v260.16c0 16.613-13.467 30.08-30.08 30.08s-30.08-13.467-30.08-30.08V327.885c0-120.366 89.443-219.842 205.491-235.589l1.229-.136V-33.92a29.082 29.082 0 01-.16-3.098c0-16.613 13.467-30.08 30.08-30.08s30.08 13.467 30.08 30.08c0 1.091-.058 2.169-.171 3.23l.011-.132V92.16C934.487 108.033 1023.893 207.4 1024 327.669v602.253c0 16.5-13.285 29.897-29.743 30.078h-.017zm-236.8-806.72c-83.969 15.013-146.88 87.487-146.88 174.654v.07V328v88l118.08-80.32c8.271-5.63 17.838-10.215 28.071-13.254l.729-.186zm0 236.48l-146.88 99.52v107.84l118.08-80c8.27-5.727 17.83-10.414 28.063-13.565l.737-.195zM964.16 328v-.066c0-87.167-62.911-159.641-145.805-174.494l-1.075-.16v169.6c10.972 3.263 20.542 7.958 29.119 13.972l-.319-.212L964.16 416zm0 160l-146.88-99.52v114.88c10.97 3.346 20.53 8.033 29.147 13.987l-.347-.227 118.08 80zM443.52 960c-16.613 0-30.08-13.467-30.08-30.08V669.76l-146.56-99.52v316.48c0 16.613-13.467 30.08-30.08 30.08s-30.08-13.467-30.08-30.08V570.24L60.16 669.76v260.16c0 16.613-13.467 30.08-30.08 30.08S0 946.533 0 929.92V327.885C0 207.519 89.443 108.043 205.491 92.296l1.229-.136V-33.92a29.082 29.082 0 01-.16-3.098c0-16.613 13.467-30.08 30.08-30.08s30.08 13.467 30.08 30.08c0 1.091-.058 2.169-.171 3.23l.011-.132V92.16c117.277 15.883 206.72 115.359 206.72 235.725v.121V328v601.92l.002.32c0 16.436-13.324 29.76-29.76 29.76h-.002zm-236.8-806.72c-83.969 15.013-146.88 87.487-146.88 174.654v.07V328v88l118.08-80.32c8.279-5.56 17.837-10.138 28.038-13.241l.762-.199zm0 236.48L59.84 489.28v107.84l118.08-80c8.278-5.658 17.83-10.338 28.032-13.551l.768-.209zM413.44 328v-.066c0-87.167-62.911-159.641-145.805-174.494l-1.075-.16v169.6c10.975 3.194 20.554 7.896 29.097 13.96l-.297-.2L413.44 416zm0 160l-146.88-98.24v113.6c10.97 3.346 20.53 8.033 29.147 13.987l-.347-.227 118.08 80z"/><glyph unicode="" glyph-name="carret-left" d="M249.6 512L672 931.2c28.8 28.8 80 28.8 108.8 0s28.8-80 0-108.8L400 441.6 780.8 60.8c28.8-32 22.4-80-9.6-108.8-28.8-22.4-70.4-25.6-99.2 0L249.6 374.4c-38.4 35.2-38.4 96 0 137.6z"/><glyph unicode="" glyph-name="gear" d="M978.24 546.88l-58.56 8.32a5.77 5.77 0 00-5.11 4.119l-.01.041c-9.805 36.497-23.147 68.408-40.091 97.992l1.051-1.992c-.608.899-.971 2.007-.971 3.2s.363 2.301.984 3.22l-.013-.02c12.16 15.68 24.32 32 35.84 47.36 6.487 8.813 10.382 19.882 10.382 31.861 0 14.765-5.917 28.148-15.509 37.907l-63.992 63.992c-9.751 9.585-23.134 15.502-37.899 15.502a53.836 53.836 0 01-32.01-10.487l.15.105c-15.68-11.52-32-23.68-47.36-35.84-.899-.608-2.007-.971-3.2-.971s-2.301.363-3.22.984l.02-.013c-27.581 15.824-59.486 29.162-93.1 38.363l-2.9.677c-2.352.582-4.081 2.639-4.16 5.111v.009c-2.56 19.52-5.44 39.36-8.32 58.56-4.395 25.484-26.132 44.691-52.435 45.119l-.045.001h-91.52c-26.799-.162-48.965-19.791-53.079-45.451l-.041-.309c-2.88-19.2-5.76-38.72-8.32-58.56a5.77 5.77 0 00-4.119-5.11l-.041-.01c-36.497-9.805-68.408-23.147-97.992-40.091l1.992 1.051c-.899-.608-2.007-.971-3.2-.971s-2.301.363-3.22.984l.02-.013c-15.68 12.16-32 24.32-47.36 35.84-8.813 6.487-19.882 10.382-31.861 10.382-14.765 0-28.148-5.917-37.907-15.509l-63.992-63.992c-9.585-9.751-15.502-23.134-15.502-37.899a53.836 53.836 0 0110.487-32.01l-.105.15c11.52-15.68 23.68-32 35.84-47.36.608-.899.971-2.007.971-3.2s-.363-2.301-.984-3.22l.013.02c-15.893-27.592-29.235-59.503-38.379-93.143l-.661-2.857c-.582-2.352-2.639-4.081-5.111-4.16h-.009l-58.56-8.32C19.638 541.847.431 520.11.003 493.807l-.001-.045v-91.52c.162-26.799 19.791-48.965 45.451-53.079l.309-.041 58.56-8.32a5.77 5.77 0 005.11-4.119l.01-.041c9.805-36.497 23.147-68.408 40.091-97.992l-1.051 1.992c.608-.899.971-2.007.971-3.2s-.363-2.301-.984-3.22l.013.02c-12.16-15.68-24.32-32-35.84-47.36-6.487-8.813-10.382-19.882-10.382-31.861 0-14.765 5.917-28.148 15.509-37.907l63.992-63.992c9.751-9.585 23.134-15.502 37.899-15.502a53.836 53.836 0 0132.01 10.487l-.15-.105c15.68 11.52 32 23.68 47.36 35.84.899.608 2.007.971 3.2.971s2.301-.363 3.22-.984l-.02.013c27.592-15.893 59.503-29.235 93.143-38.379l2.857-.661c2.296-.672 3.977-2.678 4.159-5.101l.001-.019c2.56-19.84 5.44-39.36 8.32-58.56 4.395-25.484 26.132-44.691 52.435-45.119l.045-.001h91.52c26.799.162 48.965 19.791 53.079 45.451l.041.309c2.88 19.2 5.76 39.04 8.32 58.56a5.77 5.77 0 004.119 5.11l.041.01c36.497 9.805 68.408 23.147 97.992 40.091l-1.992-1.051c.899.608 2.007.971 3.2.971s2.301-.363 3.22-.984l-.02.013c15.68-12.16 32-24.32 47.36-35.84 8.813-6.487 19.882-10.382 31.861-10.382 14.765 0 28.148 5.917 37.907 15.509l63.992 63.992c9.585 9.751 15.502 23.134 15.502 37.899a53.836 53.836 0 01-10.487 32.01l.105-.15c-11.52 15.68-23.68 32-35.84 47.36-.608.899-.971 2.007-.971 3.2s.363 2.301.984 3.22l-.013-.02c15.893 27.592 29.235 59.503 38.379 93.143l.661 2.857c.672 2.296 2.678 3.977 5.101 4.159l.019.001 58.56 8.32c25.484 4.395 44.691 26.132 45.119 52.435l.001.045v91.52c-.162 26.799-19.791 48.965-45.451 53.079l-.309.041zm-1.92-144.64v-.036a5.761 5.761 0 00-5.093-5.722l-.027-.002-57.92-8.32c-21.616-2.715-39.024-18.079-44.71-38.346l-.09-.374c-9.061-31.97-20.841-59.799-35.554-85.745l.994 1.905c-4.457-7.607-7.089-16.752-7.089-26.512a52.895 52.895 0 0111.335-32.803l-.087.114 35.2-46.4c.799-1.056 1.28-2.392 1.28-3.84s-.481-2.784-1.292-3.856l.012.016-64-64c-1.056-.799-2.392-1.28-3.84-1.28s-2.784.481-3.856 1.292l.016-.012-46.72 35.2c-8.983 7.088-20.468 11.37-32.953 11.37-9.646 0-18.696-2.556-26.508-7.027l.261.138c-24.087-14.063-51.929-25.963-81.283-34.262l-2.557-.618c-20.681-5.823-36.107-23.181-39.009-44.522l-.031-.278c-2.24-19.52-5.12-39.04-8-57.92-.333-2.894-2.769-5.12-5.724-5.12h-92.872a5.761 5.761 0 00-5.722 5.093l-.002.027c-2.88 18.88-5.76 38.4-8.32 57.92-2.8 21.579-18.126 38.946-38.343 44.708l-.377.092c-31.97 9.061-59.799 20.841-85.745 35.554l1.905-.994c-7.607 4.457-16.752 7.089-26.512 7.089a52.895 52.895 0 01-32.803-11.335l.114.087-46.4-36.8c-.99-.827-2.276-1.329-3.68-1.329s-2.69.502-3.689 1.336l.009-.007-64 64c-.799 1.056-1.28 2.392-1.28 3.84s.481 2.784 1.292 3.856l-.012-.016 35.2 46.72c7.236 9.038 11.612 20.638 11.612 33.26 0 10.042-2.77 19.436-7.587 27.462l.135-.242c-14.131 24.096-26.036 51.945-34.278 81.326l-.602 2.514c-5.776 20.641-23.184 36.005-44.539 38.693l-.261.027-57.92 8.32c-2.722.326-4.812 2.621-4.812 5.404 0 .125.004.25.013.373l-.001-.017v91.52a5.44 5.44 0 004.774 5.757l.026.003c19.2 2.88 38.4 5.76 57.92 8 21.619 2.933 38.977 18.359 44.709 38.661l.091.379c8.32 31.883 19.595 59.768 33.919 85.736l-.959-1.896c4.497 7.606 7.154 16.762 7.154 26.539a52.579 52.579 0 01-11.398 32.771l.084-.11c-11.84 14.4-23.68 31.04-35.2 46.4-.827.99-1.329 2.276-1.329 3.68s.502 2.69 1.336 3.689l-.007-.009 64 64c1.056.799 2.392 1.28 3.84 1.28s2.784-.481 3.856-1.292l-.016.012 46.72-35.2c9.038-7.236 20.638-11.612 33.26-11.612 10.042 0 19.436 2.77 27.462 7.587l-.242-.135c24.087 14.063 51.929 25.963 81.283 34.262l2.557.618c20.594 5.854 35.92 23.221 38.691 44.531l.029.269c2.56 19.52 5.44 39.04 8.32 57.92.333 2.894 2.769 5.12 5.724 5.12h91.592a5.761 5.761 0 005.722-5.093l.002-.027c2.88-18.88 5.76-38.4 8.32-57.92 2.715-21.616 18.079-39.024 38.346-44.71l.374-.09c31.892-8.351 59.774-19.624 85.755-33.926l-1.915.966c7.607-4.457 16.752-7.089 26.512-7.089a52.895 52.895 0 0132.803 11.335l46.286 35.113c1.056.799 2.392 1.28 3.84 1.28s2.784-.481 3.856-1.292l-.016.012 64-64c.799-1.056 1.28-2.392 1.28-3.84s-.481-2.784-1.292-3.856l.012.016-35.2-46.72c-7.014-8.918-11.249-20.308-11.249-32.688 0-9.759 2.632-18.904 7.225-26.763l-.136.252c13.803-24.059 25.589-51.895 33.915-81.187l.645-2.653c5.823-20.681 23.181-36.107 44.522-39.009l.278-.031 57.92-8c2.894-.333 5.12-2.769 5.12-5.724v-.038.002zM512 670.4c-123.712 0-224-100.288-224-224s100.288-224 224-224 224 100.288 224 224c.004.477.006 1.041.006 1.606 0 122.828-99.572 222.4-222.4 222.4-.565 0-1.129-.002-1.692-.006l.087.001zm174.4-224c-.905-95.628-78.637-172.8-174.393-172.8-96.318 0-174.4 78.082-174.4 174.4 0 96.316 78.077 174.396 174.392 174.4 96.318 0 174.4-78.082 174.4-174.4z"/><glyph unicode="" glyph-name="hands" d="M1019.84 524.48l-171.52 224c-3.663 4.712-9.333 7.714-15.703 7.714a19.75 19.75 0 01-10.931-3.28l.074.046-110.72-70.4H566.72c-.818.158-1.758.248-2.72.248s-1.902-.09-2.814-.263l.094.015-112-32-116.16 32-112.64 69.12c-3.096 2.094-6.913 3.343-11.022 3.343-6.276 0-11.872-2.914-15.507-7.464l-.031-.04L4.48 511.999a20.038 20.038 0 01-4.414-12.59 20.11 20.11 0 016.95-15.229l.025-.021 99.2-85.44 89.28-120.32c-11.475-12.573-18.503-29.375-18.503-47.818 0-36.396 27.37-66.399 62.65-70.55l.334-.032v-10.883c0-39.009 31.442-70.675 70.366-71.037h.034c0-39.234 31.806-71.04 71.04-71.04a64.742 64.742 0 0111.123.017l-.243-.017c3.531-36.249 33.846-64.349 70.724-64.349 2.478 0 4.926.127 7.338.374l-.303-.025c16.975 1.825 31.93 9.303 43.205 20.485l10.875 10.875 4.48-3.84c12.717-12.115 29.97-19.569 48.963-19.569 39.234 0 71.04 31.806 71.04 71.04 0 .242-.001.484-.004.726v-.037c.384-.007.837-.012 1.291-.012 38.788 0 70.316 31.087 71.028 69.705l.001.067v3.52c.289-.004.63-.007.971-.007 38.787 0 70.313 31.084 71.028 69.7l.001.067v2.56c.383-.007.834-.012 1.286-.012 38.724 0 70.179 31.124 70.713 69.721l.001.05c.006.348.01.758.01 1.169 0 14.335-4.304 27.665-11.691 38.768l.161-.258 64 136.32 97.92 84.16c4.521 3.783 7.377 9.428 7.377 15.74 0 3.876-1.077 7.501-2.948 10.592l.051-.091zM48 502.72l166.08 205.44 80.96-51.52L118.72 441.6zm176-293.76c-5.291 5.692-8.537 13.347-8.537 21.76s3.247 16.068 8.555 21.78l-.018-.02 24.64 24.32a14.87 14.87 0 002.212 2.218l.028.022a31.764 31.764 0 0016.503 6.709l.137.011h3.2a31.937 31.937 0 0022.068-9.907l.012-.013c5.291-5.692 8.537-13.347 8.537-21.76s-3.247-16.068-8.555-21.78l.018.02-23.68-23.68a31.89 31.89 0 00-22.399-9.147c-8.883 0-16.921 3.62-22.719 9.464l-.002.002zM288 128c-5.291 5.692-8.537 13.347-8.537 21.76s3.247 16.068 8.555 21.78l-.018-.02 47.68 47.68a31.852 31.852 0 0021.196 8.027 31.87 31.87 0 0014.19-3.31l-.187.084c10.284-5.461 17.168-16.104 17.168-28.355 0-1.284-.076-2.551-.223-3.796l.015.151c-1.009-7.325-4.367-13.727-9.276-18.556l-.004-.004-46.4-45.44c-5.731-5.471-13.512-8.838-22.08-8.838s-16.349 3.367-22.092 8.85l.012-.012zm115.52-72.32c-5.692-5.291-13.347-8.537-21.76-8.537s-16.068 3.247-21.78 8.555l.02-.018c-5.291 5.692-8.537 13.347-8.537 21.76s3.247 16.068 8.555 21.78L360 99.2l47.68 47.68a31.873 31.873 0 0021.889 8.657 31.857 31.857 0 0015.397-3.941l-.166.084c9.118-5.744 15.087-15.758 15.087-27.165 0-1.706-.134-3.381-.391-5.016l.023.181c-.988-7.172-4.224-13.452-8.963-18.243l.003.003zM508.48 16L484.8-7.68c-5.671-5.202-13.263-8.39-21.6-8.39s-15.929 3.188-21.624 8.411l.024-.021c-5.291 5.692-8.537 13.347-8.537 21.76s3.247 16.068 8.555 21.78l-.018-.02 26.56 26.56a31.784 31.784 0 0013.554 6.365l.206.035H488a31.923 31.923 0 0022.075-9.595l.005-.005 1.92-2.24c3.877-5.231 6.206-11.813 6.206-18.939 0-8.853-3.595-16.867-9.406-22.66l-.001-.001zM816 216.64c-5.692-5.291-13.347-8.537-21.76-8.537s-16.068 3.247-21.78 8.555l.02-.018-128 130.56c-3.595 3.621-8.576 5.862-14.08 5.862s-10.485-2.241-14.079-5.861l-.001-.001c-3.362-3.592-5.426-8.435-5.426-13.76s2.064-10.168 5.437-13.771l-.01.011 130.56-131.84c5.291-5.692 8.537-13.347 8.537-21.76s-3.247-16.068-8.555-21.78l.018.02c-5.692-5.291-13.347-8.537-21.76-8.537s-16.068 3.247-21.78 8.555l.02-.018-87.36 88.32c-3.681 3.564-8.704 5.761-14.24 5.761s-10.559-2.197-14.245-5.766l.005.005c-3.362-3.592-5.426-8.435-5.426-13.76s2.064-10.168 5.437-13.771l-.01.011 84.48-88v-1.6c2.539-4.482 4.035-9.844 4.035-15.555 0-17.673-14.327-32-32-32a31.854 31.854 0 00-15.715 4.118l.16-.083-47.68 48a20.06 20.06 0 01-13.235 4.953c-11.134 0-20.16-9.026-20.16-20.16 0-4.516 1.485-8.685 3.993-12.046l-.038.053 46.08-46.72 1.6-1.6c5.291-5.692 8.537-13.347 8.537-21.76S604.332 6.652 599.024.94l.018.02c-5.692-5.291-13.347-8.537-21.76-8.537S561.214-4.33 555.502.978l.02-.018-4.48 3.52c-1.6 0-1.92 1.6 0 3.2s1.92 3.2 2.56 4.8l1.92 5.44c2.021 6.623 3.185 14.235 3.185 22.12 0 3.483-.227 6.913-.667 10.276l.042-.396c-4.357 31.28-28.649 55.789-59.45 60.432l-.39.048c1.033 4.582 1.625 9.845 1.625 15.245 0 18.812-7.182 35.946-18.955 48.81l.049-.055c-12.64 13.58-30.608 22.055-50.555 22.08h-2.245c.023.675.037 1.469.037 2.265 0 38.042-30.311 69.004-68.1 70.053l-.097.002a64.142 64.142 0 01-17.716-1.688l.436.088c-5.262 34.311-34.571 60.285-69.946 60.285-3.661 0-7.256-.278-10.767-.814l.393.049c-15.024-2.41-28.164-9.162-38.431-18.91l.031.03-77.44 104.64L332.161 640l59.2-16.32-77.12-137.6c-5.692-9.963-9.049-21.895-9.049-34.612 0-26.139 14.181-48.966 35.27-61.207l.339-.181 3.2-1.6c2.245-1.486 4.866-2.978 7.585-4.298l.415-.182c6.922-2.487 14.909-3.925 23.232-3.925 26.267 0 49.189 14.32 61.386 35.58l.182.345 50.24 88.64 89.6-6.08 238.72-239.04a31.888 31.888 0 009.028-22.277c0-8.168-3.06-15.62-8.096-21.275l.028.032zm8.32 92.16l-224 224a21.278 21.278 0 01-11.444 4.475l-.076.005L478.08 544c-.497.044-1.074.069-1.658.069-7.333 0-13.737-3.978-17.171-9.894l-.051-.095-56.32-99.84c-5.832-6.061-14.012-9.826-23.072-9.826-17.673 0-32 14.327-32 32 0 2.809.362 5.533 1.042 8.129l-.05-.223 75.52 133.12 32 8.64 113.92 32h137.92L880 419.52zm80.96 145.92l-160 202.24 81.28 51.84 148.48-192zm-284.8 264.32a20.106 20.106 0 0114.076 6.076l.004.004 137.28 136.96c3.564 3.681 5.761 8.704 5.761 14.24s-2.197 10.559-5.766 14.245l.005-.005c-3.61 3.718-8.656 6.025-14.24 6.025s-10.63-2.307-14.235-6.02L606.08 753.28c-3.545-3.63-5.732-8.6-5.732-14.08s2.187-10.45 5.735-14.084l-.004.004a20.418 20.418 0 0114.391-6.08h.009zm0 0zm-231.04 6.08c3.724-4.726 9.448-7.733 15.874-7.733 11.134 0 20.16 9.026 20.16 20.16 0 6.346-2.932 12.007-7.515 15.703l-.039.03-137.28 137.28c-3.61 3.718-8.656 6.025-14.24 6.025s-10.63-2.307-14.235-6.02l-.005-.005c-3.564-3.681-5.761-8.704-5.761-14.24s2.197-10.559 5.766-14.245l-.005.005zM512 719.04c11.134 0 20.16 9.026 20.16 20.16v113.6c0 11.134-9.026 20.16-20.16 20.16s-20.16-9.026-20.16-20.16V739.2c0-11.134 9.026-20.16 20.16-20.16zm7.68 195.52c6.521 3.428 10.892 10.155 10.892 17.903 0 11.134-9.026 20.16-20.16 20.16a20.101 20.101 0 01-14.409-6.06l-.004-.004a20.094 20.094 0 01-5.748-14.097c0-11.134 9.026-20.16 20.16-20.16 3.386 0 6.577.835 9.378 2.309l-.11-.053z"/><glyph unicode="" glyph-name="link" d="M726 640.667q88 0 150-63t62-151-62-151-150-63H554v82h172q54 0 93 39t39 93-39 93-93 39H554v82h172zm-384-256v84h340v-84H342zm-176 42q0-54 39-93t93-39h172v-82H298q-88 0-150 63t-62 151 62 151 150 63h172v-82H298q-54 0-93-39t-39-93z"/><glyph unicode="" glyph-name="download" d="M256 340.667h86q0-70 50-120t120-50 120 50 50 120h86q0-106-75-181t-181-75-181 75-75 181zm214 384h84v-238h150l-192-192-192 192h150v238z"/><glyph unicode="" glyph-name="ok" d="M870.08 505.28c-14.196-1.007-25.331-12.771-25.331-27.136 0-.586.019-1.167.055-1.743l-.004.079V448c-.001-218.439-177.081-395.519-395.52-395.519S53.76 229.561 53.76 448.001c0 218.44 177.08 395.52 395.52 395.52l1.013-.001h-.053l1.279.002c89.101 0 171.265-29.703 237.13-79.748l-.969.706c4.115-2.635 9.135-4.2 14.521-4.2 15.022 0 27.2 12.178 27.2 27.2 0 8.348-3.761 15.817-9.68 20.807l-.041.034c-74.176 55.896-167.881 89.521-269.44 89.521C201.579 897.842 0 696.263 0 447.602S201.579-2.638 450.24-2.638s450.24 201.579 450.24 450.24v.42-.021 32c-.934 14.261-12.73 25.475-27.145 25.475-1.147 0-2.278-.071-3.387-.209l.133.013zM992 836.48c-19.285 19.29-45.929 31.221-75.36 31.221s-56.075-11.931-75.36-31.221L448 442.24 307.84 581.76c-19.315 19.355-46.019 31.328-75.52 31.328-58.922 0-106.688-47.766-106.688-106.688 0-29.421 11.909-56.061 31.17-75.362l-.002.002L397.76 190.4c12.789-12.746 30.434-20.627 49.92-20.627s37.131 7.881 49.922 20.629l-.002-.002L992 685.44c19.386 19.3 31.382 46.009 31.382 75.52s-11.996 56.22-31.378 75.516l-.004.004zm-38.4-112.32L459.2 229.12c-2.9-2.923-6.919-4.733-11.36-4.733s-8.46 1.81-11.359 4.732L195.84 469.76c-9.467 9.395-15.328 22.413-15.328 36.8s5.861 27.405 15.324 36.797l.003.003c9.465 9.314 22.461 15.065 36.8 15.065s27.335-5.751 36.807-15.072l-.007.007 143.36-144c8.939-8.767 21.198-14.179 34.72-14.179s25.781 5.411 34.728 14.186l398.392 398.392c9.611 10.952 23.636 17.828 39.268 17.828 28.807 0 52.16-23.353 52.16-52.16 0-15.632-6.876-29.658-17.769-39.217l-.059-.051z"/><glyph unicode="" glyph-name="fullscreen_exit" d="M682 596.667h128v-84H598v212h84v-128zm-84-468v212h212v-84H682v-128h-84zm-256 468v128h84v-212H214v84h128zm-128-340v84h212v-212h-84v128H214z"/><glyph unicode="" glyph-name="plus" d="M512 960C229.23 960 0 730.77 0 448S229.23-64 512-64s512 229.23 512 512-229.23 512-512 512zm0-992C246.903-32 32 182.903 32 448s214.903 480 480 480 480-214.903 480-480S777.097-32 512-32zm48.32 782.72h-63.04v-288h-288v-63.04h288V128.32h63.04v271.36h271.36v63.04H560.32v288z"/><glyph unicode="" glyph-name="replay" d="M512 724.667q142 0 242-100t100-240q0-142-101-242t-241-100-241 100-101 242h86q0-106 75-181t181-75 181 75 75 181-75 181-181 75v-172l-214 214 214 214v-172z"/><glyph unicode="" glyph-name="eau" d="M399.68 78.72c-96.532 30.639-165.257 119.456-165.257 224.324 0 25.019 3.912 49.125 11.157 71.739l-.46-1.663c8.304 26.532 20.301 49.604 35.626 70.034l-.426-.594c.616.831 1.154 1.78 1.568 2.792l.032.088c1.174 2.48 1.859 5.388 1.859 8.456 0 11.134-9.026 20.16-20.16 20.16-6.463 0-12.216-3.042-15.906-7.772l-.034-.045c-33.732-45.192-54.008-102.148-54.008-163.84s20.276-118.648 54.527-164.568l-.519.728c34.524-45.607 81.838-79.89 136.588-97.686l1.972-.554c1.867-.619 4.016-.976 6.248-.976 8.91 0 16.49 5.689 19.308 13.633l.044.143c.562 1.783.886 3.834.886 5.96 0 8.876-5.647 16.433-13.544 19.275l-.143.045zm513.92 412.8c-.093 39.611-13.047 76.179-34.905 105.768l.345-.488-128 188.16c-3.6 5.42-9.679 8.944-16.581 8.944-4.21 0-8.113-1.311-11.324-3.547l.065.043a14.83 14.83 0 01-5.402-5.37l-.038-.07L665.6 704 500.16 951.04c-3.6 5.42-9.679 8.944-16.581 8.944-4.21 0-8.113-1.311-11.324-3.547l.065.043a14.83 14.83 0 01-5.402-5.37l-.038-.07L183.04 529.6c-45.96-61.283-73.597-138.609-73.597-222.39 0-205.892 166.908-372.8 372.8-372.8s372.8 166.908 372.8 372.8c0 .559-.001 1.117-.004 1.676v-.086a363.84 363.84 0 01-3.414 51.167l.214-1.887c37.655 32.481 61.438 80.151 61.76 133.384v.056zM736 737.92L846.4 574.4c16.889-22.624 27.04-51.137 27.04-82.022 0-76.171-61.749-137.92-137.92-137.92S597.6 416.207 597.6 492.378c0 30.885 10.151 59.398 27.3 82.386l-.26-.364 56.64 84.48zm80.96-429.12c-.446-183.463-149.274-332.017-332.799-332.017-183.8 0-332.8 149-332.8 332.8 0 73.974 24.135 142.31 64.96 197.565l-.641-.908L483.52 904 640 669.76l-48-73.28c-21.612-29.11-34.596-65.75-34.596-105.422 0-98.263 79.657-177.92 177.92-177.92 29.44 0 57.21 7.15 81.668 19.809l-.992-.467c0-8 .32-15.68.32-23.68zm-152 187.52l-.001.281c0 9.969 2.12 19.443 5.935 27.996l-.174-.437c1.044 2.334 1.652 5.059 1.652 7.925 0 8.204-4.98 15.246-12.082 18.266l-.13.049c-2.357 1.046-5.107 1.655-7.999 1.655-8.016 0-14.939-4.678-18.188-11.454l-.052-.121c-6.018-13.109-9.527-28.44-9.527-44.591 0-37.288 18.703-70.208 47.24-89.89l.366-.239c3.043-1.941 6.753-3.094 10.732-3.094 7.183 0 13.488 3.756 17.059 9.411l.049.083c1.924 3.003 3.066 6.666 3.066 10.596 0 6.716-3.337 12.652-8.443 16.242l-.063.042c-17.893 12.53-29.447 33.049-29.447 56.267 0 .356.003.712.008 1.067l-.001-.054zM473.92 50.88c-3.003 7.378-10.118 12.484-18.426 12.484-2.824 0-5.51-.59-7.942-1.653l.128.05c-7.335-3.125-12.384-10.273-12.384-18.6 0-2.755.553-5.381 1.553-7.773l-.049.133c2.992-7.401 10.119-12.527 18.443-12.527 9.958 0 18.203 7.336 19.624 16.899l.013.108c.27 1.175.424 2.525.424 3.91 0 2.514-.509 4.91-1.429 7.089l.045-.12zm251.2 336.64c3.134-2.105 6.992-3.36 11.144-3.36 11.134 0 20.16 9.026 20.16 20.16s-9.026 20.16-20.16 20.16c-4.151 0-8.01-1.255-11.216-3.406l.073.046c-5.438-3.668-8.968-9.806-8.968-16.768 0-4.257 1.319-8.205 3.571-11.459l-.044.067a22.284 22.284 0 015.371-5.394l.069-.046z"/><glyph unicode="" glyph-name="carret-right" d="M773.44 378.88L352-41.6c-13.922-13.922-33.155-22.533-54.4-22.533-42.489 0-76.933 34.444-76.933 76.933 0 21.245 8.611 40.478 22.533 54.4L624.96 448 244.48 828.8c-11.24 13.27-18.074 30.583-18.074 49.493 0 42.415 34.385 76.8 76.8 76.8 18.59 0 35.637-6.605 48.923-17.596l-.129.103 421.44-420.48c18.124-17.487 29.378-41.989 29.378-69.12s-11.255-51.633-29.35-69.093l-.029-.027z"/><glyph unicode="" glyph-name="magnifier" d="M902.497 250.883c162.002 162.005 161.999 425.609 0 587.614-162.005 162.005-425.606 162.005-587.607 0C177.451 701.058 156.635 496.65 252.388 337.03c0 0 6.878-11.539-2.411-20.822A10219877.24 10219877.24 0 0137.989 104.22C-4.205 62.029-14.25 3.031 23.168-34.394l6.442-6.436c37.418-37.424 96.419-27.383 138.61 14.811 0 0 158.657 158.66 211.543 211.543 9.735 9.735 21.27 2.857 21.27 2.857 159.617-95.75 364.024-74.938 501.464 62.502zm-510.898 76.712c-119.705 119.705-119.702 314.477.003 434.182 119.705 119.702 314.477 119.705 434.179 0 119.705-119.702 119.705-314.477 0-434.182-119.705-119.699-314.474-119.699-434.182 0zm26.518 241.753a42.818 42.818 0 00-16.695 3.401c-21.808 9.23-32.011 34.393-22.781 56.204 58.012 137.093 216.738 201.429 353.828 143.417 21.808-9.23 32.011-34.393 22.781-56.204-9.233-21.811-34.39-32.008-56.208-22.781-93.533 39.578-201.838-4.318-241.413-97.851-6.924-16.359-22.804-26.186-39.513-26.186z"/><glyph unicode="" glyph-name="email" d="M1023.244 739.402c0 1.17.805 2.309.752 3.466l-312.49-301.101 312.116-291.482c.182 2.082-.378 4.182-.378 6.309v582.808zm-359.439-343.97L536.238 272.696a33.277 33.277 0 00-23.134-9.325 33.268 33.268 0 00-22.747 8.956l-127.22 118.549L48.983 88.067c7.639-2.745 15.838-4.876 24.424-4.876h879.398c12.751 0 24.709 3.884 35.106 9.676L663.805 395.431zm-151.066-52.746l476.903 459.396c-10.797 6.42-23.366 10.726-36.837 10.726H73.407c-17.542 0-33.616-6.811-46.135-17.199l485.467-452.923zM0 728.213V156.602c0-6.562 1.508-12.888 3.145-18.934l310.256 298.769L-.001 728.213z"/><glyph unicode="" glyph-name="pin" d="M512 960c-204.49 0-370.854-166.364-370.854-370.852 0-253.776 331.878-626.334 346.008-642.07 13.272-14.782 36.444-14.756 49.692 0 14.13 15.736 346.008 388.294 346.008 642.07C882.85 793.636 716.488 960 512 960zm0-557.438c-102.884 0-186.584 83.702-186.584 186.586S409.118 775.732 512 775.732s186.582-83.702 186.582-186.586S614.882 402.562 512 402.562z"/><glyph unicode="" glyph-name="facebook" d="M682.539 789.973h93.483v162.816C759.894 955.008 704.427 960 639.83 960c-134.784 0-227.115-84.779-227.115-240.597V576H263.979V393.984h148.736V-64h182.357v457.941h142.72l22.656 182.016H595.029v125.397c.043 52.608 14.208 88.619 87.509 88.619z"/><glyph unicode="" glyph-name="play_circle" d="M512 84.667q140 0 241 101t101 241-101 241-241 101-241-101-101-241 101-241 241-101zm0 768q176 0 301-125t125-301-125-301-301-125-301 125-125 301 125 301 301 125zm-86-618v384l256-192z"/><glyph unicode="" glyph-name="twitter" d="M1024 765.504c-38.08-16.704-78.656-27.776-120.96-33.152 43.52 25.984 76.736 66.816 92.352 116.032-40.576-24.192-85.376-41.28-133.12-50.816C823.744 838.592 768.832 864 708.928 864c-116.224 0-209.792-94.336-209.792-209.984 0-16.64 1.408-32.64 4.864-47.872-174.528 8.512-328.96 92.16-432.704 219.584-18.112-31.424-28.736-67.392-28.736-106.112 0-72.704 37.44-137.152 93.248-174.464-33.728.64-66.816 10.432-94.848 25.856v-2.304c0-102.016 72.768-186.752 168.192-206.272-17.088-4.672-35.712-6.912-55.04-6.912-13.44 0-27.008.768-39.744 3.584 27.2-83.136 104.384-144.256 196.16-146.24-71.424-55.872-162.112-89.536-260.288-89.536-17.216 0-33.728.768-50.24 2.88C92.992 66.24 203.2 32 322.048 32c386.304 0 597.504 320 597.504 597.376 0 9.28-.32 18.24-.768 27.136 41.664 29.568 76.672 66.496 105.216 108.992z"/><glyph unicode="" glyph-name="linkedin" d="M1023.744-64v.043h.256v375.552c0 183.723-39.552 325.248-254.336 325.248-103.253 0-172.544-56.661-200.832-110.379h-2.987v93.227H362.197V-63.957H574.25V274.56c0 89.131 16.896 175.317 127.275 175.317 108.757 0 110.379-101.717 110.379-181.035V-64.001zM16.896 619.648h212.309V-64H16.896zM122.965 960C55.082 960 0 904.917 0 837.035s55.083-124.117 122.965-124.117S245.93 769.153 245.93 837.035C245.887 904.918 190.805 960 122.965 960z"/><glyph unicode="" glyph-name="close_fullscreen" d="M938 792.667l-226-226 142-140H512v342l140-142 226 226zm-792-792l226 226 140-142v342H170l142-140-226-226z"/><glyph unicode="" glyph-name="youtube" d="M971.719 687.947c-11.062 41.127-43.488 73.547-84.609 84.621-75.123 20.555-375.621 20.555-375.621 20.555s-300.486 0-375.609-19.775c-40.33-11.062-73.547-44.279-84.609-85.4-19.77-75.117-19.77-230.9-19.77-230.9s0-156.568 19.77-230.9c11.074-41.121 43.488-73.541 84.615-84.615 75.908-20.561 375.615-20.561 375.615-20.561s300.486 0 375.609 19.775c41.127 11.068 73.547 43.488 84.621 84.609 19.764 75.123 19.764 230.9 19.764 230.9s.791 156.574-19.775 231.691zM415.816 313.129v287.836l249.879-143.918z"/><glyph unicode="" glyph-name="instagram" d="M1022.998 658.941c-2.399 54.409-11.198 91.815-23.802 124.227-13.003 34.405-33.006 65.208-59.215 90.815-25.607 26.005-56.613 46.212-90.619 59.012-32.6 12.604-69.811 21.403-124.22 23.802-54.815 2.602-72.217 3.204-211.244 3.204s-156.429-.602-211.041-3.001c-54.409-2.399-91.815-11.205-124.22-23.802-34.413-13.003-65.216-33.006-90.822-59.215-26.005-25.607-46.204-56.613-59.012-90.619C16.199 750.756 7.4 713.553 5.001 659.144 2.399 604.329 1.797 586.927 1.797 447.9s.602-156.429 3.001-211.041c2.399-54.409 11.205-91.815 23.809-124.227C41.61 78.227 61.809 47.424 87.814 21.817c25.607-26.005 56.613-46.212 90.619-59.012 32.608-12.604 69.811-21.403 124.227-23.802 54.604-2.407 72.014-3.001 211.041-3.001s156.429.594 211.041 3.001c54.409 2.399 91.815 11.198 124.22 23.802a261.922 261.922 0 01149.834 149.826c12.596 32.608 21.403 69.818 23.802 124.227 2.399 54.612 3.001 72.014 3.001 211.041s-.203 156.429-2.602 211.041zM930.785 240.86c-2.204-50.01-10.604-77.015-17.605-95.019-17.206-44.61-52.612-80.016-97.222-97.222-18.004-7.001-45.204-15.401-95.019-17.597-54.011-2.407-70.209-3.001-206.837-3.001s-153.03.594-206.845 3.001c-50.01 2.196-77.015 10.596-95.019 17.597-22.2 8.205-42.407 21.207-58.808 38.211-17.003 16.605-30.006 36.609-38.211 58.808-7.001 18.004-15.401 45.212-17.597 95.019-2.407 54.011-3.001 70.217-3.001 206.845s.594 153.03 3.001 206.837c2.196 50.01 10.596 77.015 17.597 95.019 8.205 22.207 21.207 42.407 38.414 58.816 16.597 17.003 36.601 30.006 58.808 38.203 18.004 7.001 45.212 15.401 95.019 17.605 54.011 2.399 70.217 3.001 206.837 3.001 136.831 0 153.03-.602 206.845-3.001 50.01-2.204 77.015-10.604 95.019-17.605 22.2-8.197 42.407-21.199 58.808-38.203 17.003-16.605 30.006-36.609 38.211-58.816 7.001-18.004 15.401-45.204 17.605-95.019 2.399-54.011 3.001-70.209 3.001-206.837s-.602-152.631-3.001-206.642zM513.899 710.951c-145.224 0-263.051-117.82-263.051-263.051s117.828-263.051 263.051-263.051c145.231 0 263.051 117.82 263.051 263.051S659.13 710.951 513.899 710.951zm0-433.686c-94.214 0-170.635 76.413-170.635 170.635s76.421 170.635 170.635 170.635c94.222 0 170.635-76.413 170.635-170.635s-76.413-170.635-170.635-170.635zm334.87 444.087c0-33.913-27.498-61.41-61.418-61.41-33.913 0-61.41 27.498-61.41 61.41 0 33.921 27.498 61.41 61.41 61.41 33.921 0 61.418-27.49 61.418-61.41z"/><glyph unicode="" glyph-name="search" d="M902.497 250.883c162.002 162.005 161.999 425.609 0 587.614-162.005 162.005-425.606 162.005-587.607 0C177.451 701.058 156.635 496.65 252.388 337.03c0 0 6.878-11.539-2.411-20.822A10219877.24 10219877.24 0 0137.989 104.22C-4.205 62.029-14.25 3.031 23.168-34.394l6.442-6.436c37.418-37.424 96.419-27.383 138.61 14.811 0 0 158.657 158.66 211.543 211.543 9.735 9.735 21.27 2.857 21.27 2.857 159.617-95.75 364.024-74.938 501.464 62.502zm-510.898 76.712c-119.705 119.705-119.702 314.477.003 434.182 119.705 119.702 314.477 119.705 434.179 0 119.705-119.702 119.705-314.477 0-434.182-119.705-119.699-314.474-119.699-434.182 0zm26.518 241.753a42.818 42.818 0 00-16.695 3.401c-21.808 9.23-32.011 34.393-22.781 56.204 58.012 137.093 216.738 201.429 353.828 143.417 21.808-9.23 32.011-34.393 22.781-56.204-9.233-21.811-34.39-32.008-56.208-22.781-93.533 39.578-201.838-4.318-241.413-97.851-6.924-16.359-22.804-26.186-39.513-26.186z"/><glyph unicode="" glyph-name="play" d="M1023.734 464.706c-8.59 268.997-226.031 486.43-495.021 495.021-146.367 4.644-283.302-51.068-384.503-155.554C46.92 703.727-4.198 571.306.273 431.287c8.583-268.99 226.024-486.43 495.013-495.013 5.6-.18 11.15-.266 16.713-.266 139.847 0 270.463 55.338 367.79 155.82 97.29 100.439 148.416 232.867 143.944 372.879zM802.34 166.84C725.508 87.514 622.395 43.829 512 43.829c-4.414 0-8.828.072-13.277.208-212.293 6.779-383.899 178.385-390.685 390.685-3.53 110.575 36.82 215.14 113.623 294.43 76.832 79.326 179.945 123.011 290.34 123.011 4.414 0 8.828-.072 13.277-.208 212.293-6.779 383.899-178.385 390.685-390.685 3.53-110.575-36.827-215.14-113.623-294.43zM679.933 477.746L452.889 640.539c-24.218 17.368-57.933.058-57.933-29.746V285.2c0-29.804 33.714-47.114 57.933-29.746l227.037 162.8c20.372 14.6 20.372 44.886.007 59.493z"/><glyph unicode="" glyph-name="silo" d="M900.042-31.662h-70.064v759.914c0 32.688-26.596 59.284-59.284 59.284h-26.948v26.948c0 32.688-26.596 59.284-59.284 59.284H571.284v48.506c0 20.8-16.924 37.726-37.726 37.726h-43.116c-20.802 0-37.726-16.926-37.726-37.726v-48.506H339.538c-32.688 0-59.284-26.596-59.284-59.284v-26.948h-26.948c-32.688 0-59.284-26.596-59.284-59.284V-31.662h-70.064c-8.932 0-16.168-7.236-16.168-16.168s7.236-16.168 16.168-16.168h474.274c8.932 0 16.168 7.236 16.168 16.168s-7.236 16.168-16.168 16.168H314.604l24.956 212.13 70.042-63.036V81.516c0-20.802 16.926-37.726 37.726-37.726h129.348c20.802 0 37.726 16.926 37.726 37.726v35.916l70.042 63.036L709.4-31.662h-46.492c-8.932 0-16.168-7.236-16.168-16.168s7.238-16.168 16.168-16.168h64.432l.222-.002.224.002h172.258c8.932 0 16.168 7.236 16.168 16.168-.002 8.932-7.238 16.168-16.17 16.168zm-414.99 953.936a5.395 5.395 0 005.39 5.39h43.116a5.395 5.395 0 005.39-5.39v-48.506h-53.894v48.506zM282.044-31.662h-55.686v314.014l83.758-75.384-28.072-238.63zm515.598 0h-55.686l-28.07 238.628 83.756 75.384V-31.662zm0 366.486H420.378v350.312c0 8.932-7.236 16.168-16.168 16.168s-16.168-7.238-16.168-16.168V334.82h-5.39c-8.932 0-16.168-7.236-16.168-16.168s7.236-16.168 16.168-16.168h389.024L592.028 140.8H490.442c-8.932 0-16.168-7.238-16.168-16.168s7.236-16.168 16.168-16.168h91.62V81.516a5.395 5.395 0 00-5.39-5.39H447.324a5.395 5.395 0 00-5.39 5.39v43.116c0 4.584-1.944 8.95-5.35 12.016L252.322 302.484h65.654c8.932 0 16.168 7.236 16.168 16.168s-7.236 16.168-16.168 16.168h-91.622v393.432c0 14.86 12.088 26.948 26.948 26.948h26.948V404.884c0-8.932 7.236-16.168 16.168-16.168s16.168 7.236 16.168 16.168V755.2h70.064c8.932 0 16.168 7.238 16.168 16.168s-7.236 16.168-16.168 16.168h-70.064v26.948c0 14.86 12.088 26.948 26.948 26.948H684.46c14.86 0 26.948-12.088 26.948-26.948v-26.948H447.326c-8.932 0-16.168-7.238-16.168-16.168s7.236-16.168 16.168-16.168h323.368c14.86 0 26.948-12.088 26.948-26.948V334.824z"/><glyph unicode="" glyph-name="phone-call" d="M809.283 325.668c-20.964 21.828-46.25 33.499-73.049 33.499-26.583 0-52.085-11.454-73.914-33.283l-68.295-68.078c-5.619 3.026-11.238 5.835-16.641 8.645-7.78 3.89-15.129 7.564-21.396 11.454-63.972 40.631-122.109 93.581-177.869 162.092-27.015 34.147-45.17 62.892-58.353 92.068 17.722 16.209 34.147 33.067 50.14 49.276 6.051 6.051 12.103 12.319 18.154 18.37 45.386 45.386 45.386 104.171 0 149.557l-59.001 59.001c-6.7 6.7-13.616 13.616-20.099 20.532-12.967 13.4-26.583 27.231-40.631 40.199-20.964 20.748-46.034 31.77-72.401 31.77s-51.869-11.022-73.482-31.77l-.432-.432-73.482-74.13C20.868 766.774 5.091 733.059 1.633 693.941c-5.187-63.108 13.4-121.893 27.664-160.363 35.012-94.445 87.313-181.975 165.333-275.772C289.292 144.774 403.188 55.516 533.294-7.376c49.708-23.557 116.058-51.437 190.188-56.192 4.539-.216 9.293-.432 13.616-.432 49.924 0 91.852 17.938 124.703 53.598.216.432.648.648.864 1.081 11.238 13.616 24.206 25.935 37.821 39.118 9.293 8.861 18.803 18.154 28.096 27.88 21.396 22.261 32.634 48.195 32.634 74.778 0 26.799-11.454 52.518-33.283 74.13L809.282 325.668zm77.371-227.576c-.216 0-.216-.216 0 0-8.429-9.077-17.074-17.29-26.367-26.367-14.048-13.4-28.312-27.448-41.712-43.224C796.747 5.16 771.028-5.862 737.313-5.862c-3.242 0-6.7 0-9.942.216C663.183-1.54 603.533 23.53 558.796 44.927 436.471 104.144 329.058 188.216 239.8 294.764 166.102 383.59 116.826 465.717 84.192 553.895c-20.099 53.814-27.448 95.742-24.206 135.293 2.161 25.286 11.887 46.25 29.825 64.188l73.698 73.698c10.59 9.942 21.828 15.345 32.851 15.345 13.616 0 24.638-8.213 31.554-15.129l.648-.648c13.183-12.319 25.719-25.07 38.902-38.686 6.7-6.916 13.616-13.832 20.532-20.964l59.001-59.001c22.909-22.909 22.909-44.089 0-66.998-6.268-6.268-12.319-12.535-18.587-18.587-18.154-18.587-35.444-35.876-54.247-52.734-.432-.432-.864-.648-1.081-1.081-18.587-18.587-15.129-36.741-11.238-49.06l.648-1.945c15.345-37.173 36.957-72.185 69.807-113.896l.216-.216c59.65-73.482 122.541-130.754 191.917-174.627 8.861-5.619 17.938-10.158 26.583-14.48 7.78-3.89 15.129-7.564 21.396-11.454.864-.432 1.729-1.081 2.593-1.513 7.348-3.674 14.264-5.403 21.396-5.403 17.938 0 29.176 11.238 32.851 14.912l73.914 73.914c7.348 7.348 19.019 16.209 32.634 16.209 13.4 0 24.422-8.429 31.122-15.777l.432-.432L886.436 165.74c22.261-22.044 22.261-44.737.216-67.646zm-333.26 618.325c56.624-9.509 108.061-36.309 149.124-77.372s67.646-92.5 77.372-149.124c2.377-14.264 14.696-24.206 28.744-24.206 1.729 0 3.242.216 4.971.432 15.993 2.593 26.583 17.722 23.99 33.715-11.671 68.511-44.089 130.97-93.581 180.462s-111.951 81.91-180.462 93.581c-15.993 2.593-30.905-7.997-33.715-23.773s7.564-31.122 23.557-33.715zm469.417-208.125c-19.235 112.816-72.401 215.474-154.095 297.168S684.364 940.32 571.548 959.555c-15.777 2.81-30.689-7.997-33.499-23.773-2.593-15.993 7.997-30.905 23.99-33.715 100.713-17.074 192.565-64.837 265.614-137.67 73.049-73.049 120.596-164.901 137.67-265.614 2.377-14.264 14.696-24.206 28.744-24.206 1.729 0 3.242.216 4.971.432 15.777 2.377 26.583 17.506 23.773 33.283z"/><glyph unicode="" glyph-name="loupe" d="M620 580c-11.04 0-20-8.96-20-20s8.96-20 20-20 20 8.96 20 20-8.96 20-20 20zm380.562-507.438l-266.96 266.96C777.092 405.03 800 480.89 800 560c0 220.56-179.44 400-400 400S0 780.56 0 560s179.44-400 400-400c79.112 0 154.972 22.91 220.478 66.396l73.79-73.79.032-.032L887.436-40.562C902.552-55.676 922.638-64 944-64s41.448 8.324 56.556 23.432C1015.674-25.462 1024-5.374 1024 16s-8.326 41.462-23.438 56.562zm-389.49 195.984c0-.002-.002-.002-.004-.004C549.334 223.702 476.35 200 400 200 201.496 200 40 361.496 40 560s161.496 360 360 360 360-161.496 360-360c0-76.35-23.702-149.334-68.544-211.07a361.744 361.744 0 00-80.384-80.384zm41.96-18.132a401.349 401.349 0 0156.554 56.554l56.742-56.742a485.466 485.466 0 00-56.554-56.554l-56.742 56.742zM972.278-12.278C964.718-19.838 954.676-24 944-24s-20.718 4.162-28.278 11.722l-177.59 177.59a525.55 525.55 0 0156.554 56.554L972.282 44.27C979.838 36.722 984 26.684 984 16s-4.162-20.722-11.722-28.278zM400 880C223.55 880 80 736.45 80 560s143.55-320 320-320 320 143.55 320 320-143.55 320-320 320zm0-600c-154.392 0-280 125.608-280 280s125.608 280 280 280 280-125.608 280-280-125.608-280-280-280zm224.13 365.854c-17.222 44.824-47.208 83.148-86.72 110.826C496.958 785.02 449.442 800 400 800c-11.044 0-20-8.956-20-20s8.956-20 20-20c82.198 0 157.262-51.636 186.792-128.494 3.056-7.952 10.634-12.832 18.674-12.832 2.384 0 4.81.43 7.168 1.336 10.31 3.962 15.458 15.532 11.496 25.844z"/><glyph unicode="" glyph-name="arrow-left" d="M22.4 502.4l422.4 422.4c28.8 28.8 76.8 25.6 102.4-3.2s25.6-70.4 0-99.2L288 563.2h617.6c64 0 115.2-51.2 115.2-115.2s-51.2-115.2-115.2-115.2H291.2L550.4 73.6c28.8-28.8 28.8-73.6 0-102.4s-73.6-28.8-102.4 0L22.4 396.8c-28.8 28.8-28.8 76.8 0 105.6z"/><glyph unicode="" glyph-name="arrow-right" d="M1002.56 396.16L578.24-28.16c-12.981-11.888-30.35-19.172-49.42-19.172-40.471 0-73.28 32.809-73.28 73.28 0 18.99 7.224 36.293 19.073 49.311l-.053-.059L732.8 333.44H114.56C51.29 333.44 0 384.73 0 448s51.29 114.56 114.56 114.56H732.8L474.56 820.8c-13.226 13.226-21.407 31.498-21.407 51.68 0 40.365 32.722 73.087 73.087 73.087 20.182 0 38.454-8.18 51.68-21.407l424.64-424.32c13.198-13.298 21.355-31.617 21.355-51.84s-8.156-38.542-21.359-51.845l.005.005z"/><glyph unicode="" glyph-name="technical-support" d="M180.102 168.102c-14.336 0-28.117-3.578-40.344-10.297C75.352 240.368 40 342.93 40 448c0 260.266 211.734 472 472 472 31.641 0 63.266-3.148 94-9.359 10.813-2.188 21.375 4.813 23.563 15.641s-4.813 21.375-15.641 23.57C580.586 956.586 546.297 960 512 960c-136.758 0-265.336-53.258-362.039-149.961S0 584.758 0 448c0-115.039 39.063-227.305 110.18-317.305-9.156-13.68-14.078-29.758-14.078-46.594 0-22.438 8.742-43.531 24.609-59.391C136.57 8.843 157.664.101 180.102.101S223.633 8.843 239.5 24.71c15.867 15.859 24.602 36.961 24.602 59.398 0 22.43-8.734 43.531-24.602 59.391-15.867 15.867-36.961 24.602-59.398 24.602zm31.109-115.11c-8.305-8.313-19.359-12.891-31.109-12.891s-22.797 4.578-31.109 12.891-12.891 19.359-12.891 31.109c0 11.758 4.578 22.805 12.891 31.117 8.305 8.313 19.359 12.883 31.109 12.883s22.797-4.578 31.109-12.883c8.313-8.313 12.891-19.359 12.891-31.117 0-11.75-4.578-22.797-12.891-31.109zm702.594 712.336c21.742 32.617 18.25 77.211-10.508 105.969-15.867 15.859-36.961 24.602-59.398 24.602s-43.531-8.742-59.398-24.602c-15.867-15.867-24.602-36.961-24.602-59.398s8.734-43.531 24.602-59.398 36.961-24.602 59.398-24.602c14.336 0 28.117 3.578 40.344 10.297 64.406-82.57 99.758-185.125 99.758-290.195 0-260.266-211.734-472-472-472-31.328 0-62.656 3.086-93.102 9.18-10.828 2.164-21.367-4.859-23.539-15.688-2.164-10.836 4.859-21.367 15.688-23.539 33.023-6.602 66.992-9.953 100.953-9.953 136.758 0 265.336 53.258 362.039 149.961s149.961 225.281 149.961 362.039c0 115.047-39.07 227.32-110.195 317.328zm-101.016 15.453c-8.313 8.313-12.891 19.359-12.891 31.117 0 11.75 4.578 22.797 12.891 31.109 8.305 8.313 19.359 12.891 31.109 12.891s22.805-4.578 31.117-12.891c17.148-17.156 17.148-45.07 0-62.227-8.313-8.305-19.367-12.883-31.117-12.883-11.758 0-22.805 4.578-31.109 12.883zM429.469 104c0-11.047 8.961-20 20-20h125.055c11.047 0 20 8.953 20 20v38.773a313.203 313.203 0 0175.063 31.109l27.375-27.375a20.003 20.003 0 0114.148-5.859 19.987 19.987 0 0114.141 5.867l88.391 88.453c7.805 7.813 7.805 20.477 0 28.281l-27.344 27.344a313.203 313.203 0 0131.109 75.063h38.625c11.047 0 20 8.953 20 20v125.055c0 11.047-8.953 20-20 20h-38.633a313.22 313.22 0 01-31.102 75.055l27.195 27.195a20.017 20.017 0 015.859 14.148 20.057 20.057 0 01-5.867 14.148l-88.461 88.391c-7.805 7.805-20.469 7.805-28.281-.008l-27.156-27.164a313.203 313.203 0 01-75.063 31.109v38.414c0 11.047-8.953 20-20 20H449.468c-11.039 0-20-8.953-20-20v-38.422a312.894 312.894 0 01-75.055-31.102l-27.164 27.164c-7.805 7.805-20.469 7.813-28.281.008l-88.453-88.398c-3.758-3.75-5.867-8.836-5.867-14.141s2.109-10.398 5.859-14.148l27.195-27.195a313.146 313.146 0 01-31.109-75.055h-38.555c-11.047 0-20-8.953-20-19.992l-.07-125.055c-.008-5.305 2.102-10.398 5.852-14.148s8.836-5.859 14.148-5.859h38.625a313.203 313.203 0 0131.109-75.063l-27.344-27.344c-7.805-7.805-7.813-20.469 0-28.281l88.391-88.453a20.007 20.007 0 0114.141-5.867h.008a20 20 0 0114.141 5.859l27.367 27.375a313.456 313.456 0 0175.063-31.109zM362.25 215.945c-7.914 5.117-18.328 4.008-25-2.656l-24.352-24.352-60.117 60.164 24.328 24.336c6.664 6.664 7.773 17.078 2.656 24.992-18.133 28.063-30.883 58.82-37.883 91.43-1.984 9.211-10.125 15.797-19.555 15.797h-34.352l.047 85.055h34.305c9.43 0 17.57 6.578 19.555 15.797 7 32.602 19.75 63.359 37.883 91.422 5.117 7.914 4.008 18.328-2.656 24.992l-24.172 24.18 60.164 60.117 24.148-24.156a20.014 20.014 0 0125-2.656c28.055 18.133 58.813 30.883 91.422 37.883 9.211 1.984 15.797 10.133 15.797 19.555v34.156h85.055v-34.148c0-9.43 6.578-17.578 15.797-19.555 32.602-7.008 63.367-19.75 91.422-37.883 7.914-5.117 18.328-4.016 24.992 2.656l24.156 24.148 60.164-60.117-24.172-24.172a19.996 19.996 0 01-2.656-25c18.133-28.063 30.875-58.82 37.883-91.422 1.977-9.219 10.125-15.797 19.555-15.797h34.367v-85.055h-34.367c-9.43 0-17.57-6.586-19.555-15.797-7-32.602-19.75-63.367-37.883-91.422a20.004 20.004 0 012.656-25l24.328-24.328-60.117-60.164-24.352 24.344a19.996 19.996 0 01-25 2.656c-28.063-18.133-58.82-30.875-91.422-37.883a19.997 19.997 0 01-15.797-19.555v-34.508h-85.055v34.508c0 9.422-6.586 17.57-15.797 19.555-32.602 7-63.359 19.75-91.422 37.883zM677.258 448c0 91.125-74.133 165.258-165.258 165.258S346.742 539.125 346.742 448 420.875 282.742 512 282.742 677.258 356.875 677.258 448zm-290.516 0c0 69.07 56.188 125.258 125.258 125.258S637.258 517.063 637.258 448 581.07 322.742 512 322.742 386.742 378.93 386.742 448zm309.414 436.359c5.266 0 10.422 2.141 14.141 5.859 3.719 3.742 5.859 8.898 5.859 14.164 0 5.234-2.133 10.398-5.859 14.141a20.145 20.145 0 01-14.141 5.859 20.104 20.104 0 01-14.133-5.859c-3.727-3.742-5.867-8.883-5.867-14.141 0-5.281 2.141-10.422 5.867-14.164a20.1 20.1 0 0114.133-5.859zM328.719 11.281c-5.258 0-10.422-2.141-14.141-5.859s-5.859-8.883-5.859-14.141c0-5.281 2.141-10.422 5.859-14.141s8.883-5.859 14.141-5.859 10.422 2.141 14.141 5.859c3.719 3.719 5.859 8.883 5.859 14.141s-2.141 10.422-5.859 14.141c-3.719 3.719-8.883 5.859-14.141 5.859z"/><glyph unicode="" glyph-name="elevage" d="M827.814 960c-108.208 0-196.244-88.01-196.244-196.192v-87.164s-139.662 73.824-142.13 75.186c-19.088 10.532-24.37 10.534-43.462 0-2.468-1.362-272.282-143.916-272.282-143.916-22.874-12.034-26.09-15.49-35.756-31.566-1.576-2.622-131.396-208.46-131.396-208.46-6.35-10.046-8.154-21.924-5.078-33.444 3.234-12.112 11.68-22.538 23.154-28.59a48.92 48.92 0 0122.93-5.7c12.404 0 24.51 4.716 33.49 13.376V183.442c0-8.284 6.716-15 15-15s15 6.716 15 15v175.082s98.268 155.71 99.304 157.364c4.668 7.458 6.656 10.566 8.992 12.636 2.666 2.362 7.33 4.928 17.33 10.214L462.67 658.036c1.602.85 2.98 1.606 4.186 2.266l.856.468.856-.468a336.748 336.748 0 014.218-2.284s236.386-124.826 239.284-126.62c1.738-1.076 3.018-1.99 4.018-2.876 2.334-2.07 4.324-5.178 8.992-12.636 1.036-1.654 99.302-157.362 99.302-157.362V37.092H654.54v208.68h25.25c15.304 0 27.756 12.452 27.756 27.756v42.86c0 15.304-12.452 27.756-27.756 27.756H509.546c-8.284 0-15-6.716-15-15s6.716-15 15-15h168v-38.372h-419.62v38.372h182.4c8.284 0 15 6.716 15 15s-6.716 15-15 15H255.682c-15.304 0-27.756-12.452-27.756-27.756v-42.86c0-15.304 12.452-27.756 27.756-27.756h25.25V37.094H111.038v77.126c0 8.284-6.716 15-15 15s-15-6.716-15-15V-38.852C81.038-52.72 92.32-64 106.186-64H998c14.334 0 25.998 11.664 25.998 25.998v801.81C1024 871.99 935.99 960 827.814 960zM280.934-34H111.038V7.092h169.894V-34zM600.5 245.772l-132.764-119.69-132.764 119.69zm-289.566-18.718l134.402-121.168L310.934-15.282zM334.974-34L467.738 85.69 600.5-34zM624.54-15.282L490.138 105.886 624.54 227.054zM824.378-34H654.54V7.092h169.838zm106.89 397.646a43.396 43.396 0 01-2.332 4.234l-103.89 164.532H994V363.646zM661.572 763.808c0 91.638 74.576 166.192 166.244 166.192C919.448 930 994 855.448 994 763.808v-2.574H661.572zm0-32.574H994V562.41H806.102s-7.046 11.312-8.624 13.932c-9.662 16.072-12.88 19.532-35.736 31.556l-100.172 52.9v70.436zM852.064 370.88s-100.55 159.312-101.56 160.926c-9.598 15.33-13.028 19.65-26.562 27.384-1.042.594-239.858 126.816-240.964 127.422-10.202 5.59-15.694 6.64-24.134 3.144-.074-.03-.152-.068-.226-.1-1.232-.518-235.97-124.394-235.97-124.394-23.454-12.4-25.922-14.59-37.736-33.458-1.01-1.614-101.56-160.926-101.56-160.926-.02-.032-.032-.066-.052-.098l-20.588-32.62c-4.75-7.534-15.77-10.192-24.078-5.788-4.12 2.172-7.104 5.746-8.186 9.802-.632 2.368-.892 5.968 1.458 9.686 0 0 130.074 206.248 131.744 209.024 6.896 11.468 6.896 11.468 24.034 20.486 0 0 278.386 147.278 280.024 148.026 1.64-.748 280.024-148.026 280.024-148.026l.022-.012c17.118-9.004 17.118-9.004 24.014-20.476a501.187 501.187 0 016.116-9.974L903.55 351.89c2.336-3.72 2.068-7.338 1.432-9.718-1.088-4.064-4.064-7.64-8.144-9.798-8.452-4.462-19.29-1.848-24.138 5.792l-20.584 32.614c-.02.034-.032.07-.052.1zM994-34H854.378v168.822H994zM854.378 164.822V313.6c14.626-14.084 37.526-17.748 56.476-7.75 11.2 5.93 19.492 16.032 22.876 27.794H994V164.82H854.378zM570.524 484.254c0 56.694-46.124 102.818-102.816 102.818-56.662 0-102.758-46.124-102.758-102.818s46.098-102.818 102.758-102.818c56.694.002 102.816 46.126 102.816 102.818zm-175.574 0c0 40.152 32.64 72.818 72.758 72.818 40.15 0 72.816-32.666 72.816-72.818s-32.666-72.818-72.816-72.818c-40.118.002-72.758 32.668-72.758 72.818z"/><glyph unicode="" glyph-name="down" d="M316 572.667l196-196 196 196 60-60-256-256-256 256z"/><glyph unicode="" glyph-name="up" d="M316 280.667l-60 60 256 256 256-256-60-60-196 196z"/><glyph unicode="" glyph-name="check" d="M384 248.667l452 452 60-60-512-512-238 238 60 60z"/><glyph unicode="" glyph-name="close" d="M810 664.667l-238-238 238-238-60-60-238 238-238-238-60 60 238 238-238 238 60 60 238-238 238 238z"/><glyph unicode="" glyph-name="zoom_out" d="M298 554.667h214v-42H298v42zm108-214q80 0 136 56t56 136-56 136-136 56-136-56-56-136 56-136 136-56zm256 0l212-212-64-64-212 212v34l-12 12q-76-66-180-66-116 0-197 80t-81 196 81 197 197 81 196-81 80-197q0-42-20-95t-46-85l12-12h34z"/><glyph unicode="" glyph-name="zoom_in" d="M512 512.667h-86v-86h-42v86h-86v42h86v86h42v-86h86v-42zm-106-172q80 0 136 56t56 136-56 136-136 56-136-56-56-136 56-136 136-56zm256 0l212-212-64-64-212 212v34l-12 12q-76-66-180-66-116 0-197 80t-81 196 81 197 197 81 196-81 80-197q0-42-20-95t-46-85l12-12h34z"/><glyph unicode="" glyph-name="phone-call1" d="M761.001 521.291c-4.402-1.048-7.546-4.402-11.948-5.45-5.45-2.096-9.852-3.354-15.301-4.402-6.498-1.048-10.9 3.354-12.996 8.804-1.048 5.45-2.096 9.852-1.048 15.301 1.048 9.852 3.354 19.703 5.45 29.555 5.45 29.555 10.9 59.948 16.349 89.502 1.048 7.546 3.354 16.349 2.096 24.105 0 9.852-6.498 14.253-16.349 14.253h-78.603c-3.354 0-6.498 0-9.852-1.048-5.45-1.048-8.804-4.402-9.852-8.804 0-3.354 2.096-7.546 7.546-9.852 4.402-1.048 8.804-2.096 14.253-2.096 10.9-1.048 14.253-5.45 14.253-16.349v-5.45c-4.402-26.201-8.804-52.402-14.253-78.603-2.096-15.301-4.402-30.603-6.498-44.646-3.354-21.799 18.655-42.55 35.004-44.646 9.852-1.048 20.751-2.096 30.603-2.096 21.799 0 40.454 9.852 55.756 25.153 2.096 2.096 5.45 6.498 5.45 9.852.838 5.659-3.563 10.061-10.061 6.917zm168.105 343.757c-125.555 126.603-329.713 126.603-455.058 0-121.153-121.153-125.555-314.411-12.996-441.014l2.096-2.096c-11.948-26.201-33.747-58.9-66.655-75.249-10.9-5.45-8.804-21.799 3.354-24.105 37.101-5.45 89.502 0 137.503 37.101l1.048-1.048c123.249-72.105 284.857-55.756 390.708 50.306 125.555 126.393 125.555 330.551 0 456.106zM702.101 390.287c-136.455 0-246.708 110.254-246.708 246.708s110.254 246.498 246.708 246.498 246.708-110.254 246.708-246.708-110.254-246.498-246.708-246.498zM604.844 206.88c-25.153 26.201-57.852 26.201-84.053 0l-58.9-58.9c-5.45-5.45-9.852-6.498-16.349-3.354-11.948 7.546-26.201 12.996-38.149 20.751-56.804 36.053-104.804 81.957-147.354 134.149-20.751 26.201-39.197 53.45-52.402 85.101-2.096 6.498-2.096 9.852 3.354 15.301 20.751 18.655 39.197 38.149 58.9 57.852 27.249 27.249 27.249 58.9 0 86.149l-46.952 46.952c-16.349 16.349-31.651 32.699-48 48-25.153 25.153-57.852 25.153-84.053 0l-58.9-58.9c-18.655-18.655-28.297-40.454-30.603-65.398-3.354-40.454 6.498-79.651 20.751-117.799 29.555-79.651 74.201-148.402 127.651-212.752 73.153-87.406 160.35-156.158 262.009-205.206 45.904-21.799 92.856-39.197 142.952-42.55 36.053-2.096 66.655 7.546 91.599 35.004 16.349 19.703 36.053 36.053 53.45 54.498 26.201 27.249 26.201 59.948 0 86.149l-94.952 94.952zm104.803 505.364c22.847 0 41.502 18.655 41.502 41.502s-18.655 42.55-41.502 42.55-41.502-18.655-42.55-41.502c1.048-24.105 19.703-42.55 42.55-42.55z"/><glyph unicode="" glyph-name="fullscreen" d="M598 724.667h212v-212h-84v128H598v84zm128-512v128h84v-212H598v84h128zm-512 300v212h212v-84H298v-128h-84zm84-172v-128h128v-84H214v212h84z"/><glyph unicode="" glyph-name="smartphone" d="M736 960H288c-52.8 0-96-43.2-96-96V32c0-52.8 43.2-96 96-96h448c52.8 0 96 43.2 96 96v832c0 52.8-43.2 96-96 96zm-352-48h256v-32H384v32zM512 0c-35.346 0-64 28.654-64 64s28.654 64 64 64 64-28.654 64-64-28.654-64-64-64zm256 192H256v640h512V192z"/><glyph unicode="" glyph-name="quote-left" d="M417.8 147.8c-73 5.8-126 23.6-158.8 53.6-33 30-56.8 61.6-71.6 94.8s-23.6 68.4-26.6 105.2c-1.4 13.8-2.2 27.2-2.2 40.2 0 19.6 1.4 38 4.4 55.4 0 1.4.4 2.8 1 4.4 4.4 29.6 10.8 55.2 19.6 76.4 8.6 21.4 21.6 41.4 38.6 60.2s37.4 32.8 61.2 42.2c23.2 8.6 46.6 13 70.4 13h3.2c24.6-.8 48.8-7.6 72.6-20.6s40.8-31.8 51-56.4c7.2-18 10.8-37.6 10.8-58.6 0-9.4-.8-18.8-2.2-28.2-4.4-32.6-17.2-61.8-38.6-87.8s-61-48.4-118.8-67.2c3.6-65.8 43.8-110.2 120.4-133.4l-34.4-93.2zM794.2 202c-72.4 5.8-125.2 23.6-158.4 53.6s-57.4 61.6-72.2 94.8c-14.8 33.2-23.6 68.4-26.6 105.2-1.4 13.8-2.2 27.2-2.2 40.2 0 19.6 1.4 38 4.4 55.4 0 1.4.4 2.8 1 4.4 4.4 29.6 10.8 55.2 19.6 76.4 8.6 21.4 21.6 41.4 38.6 60.2s37.4 32.8 61.2 42.2c23.2 8.6 46.6 13 70.4 13h3.2c24.6-.8 48.8-7.6 72.6-20.6s40.8-31.8 51-56.4c7.2-18 10.8-37.6 10.8-58.6 0-9.4-.8-18.8-2.2-28.2-4.4-32.6-17.2-61.8-38.6-87.8s-61-48.4-118.8-67.2c3.6-65.8 43.8-110.2 120.4-133.4L794.2 202z"/><glyph unicode="" glyph-name="quote-right" d="M153.2 294.8c81.4 22.6 133.2 66.2 155.2 130.8-51.8 18.4-84.4 40.4-97.8 65.8-10 19.2-14.8 40.4-14.8 63.8 0 7 .4 14.6 1 22.4 5 31.8 15.8 60 32.4 84.6 16.6 24.4 38.4 43 65.4 55.8s53.2 19.4 78.6 20.2h2.2c23.4 0 45.4-4.2 66-12.8 20.6-9.2 36.4-23 47.8-41.4s18.4-38 21.2-58.4c.6-10 1-21 1-33 0-12.8-.8-27-2.2-42.6l-1-4.2c-3.6-28.4-11.6-59.6-24.4-93.6C471 416 452.8 381.8 429 349c-23.8-32.6-56-63.6-96.8-93s-97.6-47-170.6-52.6l-8.4 91.4zm354-53.2c81.4 22.6 133.2 66.2 155.2 130.8-51.8 18.4-84.4 40.4-97.8 66-10 19.2-14.8 40.4-14.8 63.8 0 7 .4 14.6 1 22.4 5 31.8 15.8 60 32.4 84.6 16.6 24.4 38.4 43 65.4 55.8s53.2 19.4 78.6 20.2h2.2c23.4 0 45.4-4.2 65.8-12.8 20.6-9.2 36.4-23 47.8-41.4s18.4-38 21.2-58.4c.8-10 1-21 1-33 0-12.8-.8-27-2.2-42.6l-1-4.2c-3.6-28.4-11.6-59.6-24.4-93.6-12.8-36.2-31-70.6-54.8-103.2s-56-63.6-96.8-93-97.6-47-170.6-52.6l-8.2 91.2z"/><glyph unicode="" glyph-name="circle-arrow-left" d="M512-64c281.6 0 512 230.4 512 512S793.6 960 512 960 0 729.6 0 448 230.4-64 512-64zM217.6 480l256 256c16 16 44.8 16 64 0 16-16 16-44.8 0-64L380.8 515.2H752c38.4 0 70.4-32 70.4-70.4s-32-70.4-70.4-70.4H377.6l156.8-156.8c16-16 16-44.8 0-60.8s-44.8-16-64 0l-256 256c-16 22.4-16 48 3.2 67.2z"/><glyph unicode="" glyph-name="circle-arrow-right" d="M512 960C229.12 960 0 730.88 0 448S229.12-64 512-64s512 229.12 512 512-229.12 512-512 512zm296-543.04l-256-256c-17.28-17.28-45.12-17.28-62.4 0s-17.28 45.12-.32 62.4L644.8 378.88H272.32c-38.08 0-69.12 31.04-69.12 69.12s31.04 69.12 69.12 69.12H644.8L489.28 672.64c-17.28 17.28-17.28 45.12 0 62.4s45.12 17.28 62.4.32l256-256c17.28-17.28 17.28-45.12.32-62.4z"/><glyph unicode="" glyph-name="circle-carret-left" d="M512-64c281.6 0 512 230.4 512 512S793.6 960 512 960 0 729.6 0 448 230.4-64 512-64zM358.4 489.6L604.8 736c9.6 9.6 19.2 12.8 32 12.8s22.4-3.2 32-12.8c16-16 16-44.8 0-64l-224-224 224-224c19.2-16 19.2-44.8 0-64s-44.8-19.2-64 0L358.4 406.4c-22.4 22.4-22.4 60.8 0 83.2z"/><glyph unicode="" glyph-name="circle-carret-right" d="M512 960C229.12 960 0 730.88 0 448S229.12-64 512-64s512 229.12 512 512-229.12 512-512 512zm153.28-552.64l-246.4-246.4c-8.32-8.32-19.84-13.12-32-13.12-11.84 0-23.36 4.8-32 13.12-17.6 17.6-17.6 46.08 0 63.68L578.24 448 355.2 671.04c-17.6 17.6-17.6 46.08 0 63.68s46.08 17.6 63.68 0l246.4-246.4c22.4-22.08 22.4-58.56 0-80.96z"/><glyph unicode="" glyph-name="circle-check" d="M511.872 960c-282.56-.32-511.68-229.44-512-512 .32-282.56 229.44-511.68 512-512 282.56.32 511.68 229.44 512 512-.32 282.56-229.12 511.68-512 512zm259.52-403.52l-277.44-277.44c-8-8-18.88-12.48-30.08-12.48s-22.08 4.48-30.08 12.48L295.232 417.6c-16.64 16.64-16.64 43.52 0 60.48 16.64 16.64 43.52 16.64 60.16 0l108.48-108.48 247.04 247.04c16.64 16.64 43.52 16.64 60.16 0a42.206 42.206 0 00.32-60.16z"/><glyph unicode="" glyph-name="circle-services" d="M530.24 712c0 2.56 1.92 4.8 4.48 5.12h84.48c2.56 0 4.8-2.24 4.48-5.12 0-2.56-2.24-4.48-4.48-4.48h-84.16c-2.56 0-4.8 1.92-4.8 4.48zm47.04-496.96c-10.88 0-19.84-8.96-19.84-19.84 0-10.88 8.96-19.84 19.84-19.84s19.84 8.96 19.84 19.84c0 10.88-8.64 19.84-19.84 19.84zM1024 448c0-282.88-229.12-512-512-512S0 165.12 0 448s229.12 512 512 512 512-229.12 512-512zM794.56 285.44c0 17.28-14.08 31.68-31.68 31.68H696c-17.28 0-31.36-14.08-31.36-31.36v-3.52c0-17.28 14.08-31.68 31.68-31.68h24.96v-21.44H433.6v286.4c14.4 9.28 27.84 17.92 35.52 24 38.72 29.76 75.2 53.76 80.32 75.2 6.4 28.16-15.04 51.52-52.48 32.32-11.84-6.08-35.84-19.52-63.36-34.88v70.4h287.68V553.28h-24.96c-17.6 0-31.68-14.08-31.68-31.68v-3.52c0-17.28 14.08-31.68 31.68-31.68h66.88c17.28 0 31.68 14.08 31.68 31.68v3.52c0 17.28-14.08 31.36-31.36 31.36h-13.76v152.96c0 22.08-17.92 39.68-40 40H446.4c-22.08 0-39.68-17.92-40-40V596.48c-53.12-30.08-107.84-61.44-107.84-61.44-29.76-12.16-73.28-51.84-73.28-144.96 0-7.68.32-15.68 1.28-23.36.32-2.24.64-4.16.96-6.4.64-5.44 1.6-10.56 2.88-15.68.32-1.92.64-3.52 1.28-5.44 1.6-5.44 3.2-10.88 5.44-16.32.96-2.56 2.24-4.8 3.2-7.36.96-2.24 2.24-5.12 3.52-7.36 1.6-2.88 2.88-5.44 4.48-8 .32-.64.96-1.28 1.28-1.6 38.4-57.92 109.12-58.24 109.12-58.24h48v-45.44c0-22.08 17.92-39.68 40-40h263.36c22.08 0 39.68 17.92 40 40v55.36h13.76c17.28 0 31.68 14.08 31.68 31.36v3.84zm0 78.72c0 17.28-14.08 31.68-31.68 31.68H696c-17.28 0-31.68-14.08-31.68-31.68v-3.52c0-17.28 14.08-31.68 31.68-31.68h66.56c17.28 0 31.68 14.08 31.68 31.68v3.52zm0 78.72c0 17.28-14.08 31.36-31.36 31.68h-66.88c-17.28 0-31.68-14.08-31.68-31.68v-3.52c0-17.28 14.08-31.68 31.36-31.68h66.56c17.28 0 31.68 14.08 31.68 31.68v3.52z"/><glyph unicode="" glyph-name="circle-cross" d="M511.872 960c-287.68-5.12-516.48-234.24-512-512-4.8-277.76 224.32-506.88 512-512 287.68 5.12 516.48 234.24 512 512 4.8 277.76-224.32 506.88-512 512zm210.24-655.36a47.32 47.32 0 000-66.56c-17.6-17.6-46.72-18.56-64.96-1.6l-1.6 1.6-143.36 143.36-143.36-143.36c-17.6-17.92-46.72-18.56-64.96-1.6l-1.6 1.6a47.32 47.32 0 000 66.56L445.632 448l-143.36 143.36a47.32 47.32 0 000 66.56c17.6 17.92 46.72 18.56 64.96 1.6l1.6-1.6 143.36-143.36 143.36 143.36c17.6 17.92 46.72 18.56 64.96 1.6l1.6-1.6a47.32 47.32 0 000-66.56L578.752 448l143.36-143.36z"/><glyph unicode="" glyph-name="circle-gestion" d="M736.96 373.76V334.4c-148.8 43.52-306.56 43.52-455.36 0v39.36c148.48 45.76 307.2 45.76 455.36 0zm-447.36-80c15.04-12.16 32.32-21.12 50.88-25.92 54.72-16.32 111.68-24 168.64-23.04 56.96-.96 113.92 6.72 168.64 23.04 18.56 5.12 35.84 14.08 50.88 25.92-143.04 42.56-295.68 42.56-439.04 0zm199.36 197.76h41.28v26.24l109.44 36.48-13.12 39.04-96.32-32v53.76h-41.28v-53.76l-96.32 32-13.12-39.04 109.44-36.48v-26.24zM1024 448c0-282.88-229.12-512-512-512S0 165.12 0 448s229.12 512 512 512 512-229.12 512-512zm-177.28 75.2c-3.84 5.76-8.32 10.88-13.44 15.36l-70.4 64.96c-69.76 61.76-160 96-253.44 95.68-93.44.32-183.68-33.92-253.44-95.68l-70.4-64.96c-33.6-30.08-36.48-81.6-6.4-114.88 4.48-5.12 9.6-9.6 15.36-13.44l46.08-32.32v-71.68c0-67.52 135.36-102.72 268.8-102.72s268.8 35.2 268.8 102.72v71.68l46.08 32.32c37.44 24.96 47.36 75.52 22.4 112.96z"/><glyph unicode="" glyph-name="circle-pin-marker" d="M512.64 611.84c-51.52 0-93.44-41.92-93.44-93.44.32-51.52 41.92-93.12 93.12-93.12 51.52.32 93.12 41.92 93.12 93.12 0 51.52-41.6 93.12-92.8 93.44zM512 960C229.12 960 0 730.88 0 448S229.12-64 512-64s512 229.12 512 512-229.12 512-512 512zm169.92-519.04c-17.6-45.12-40.32-87.68-67.84-127.68-25.92-38.72-54.08-75.52-84.8-110.72-3.84-3.84-8.32-7.36-12.8-10.56h-8c-4.48 3.2-8.96 6.72-12.8 10.56-43.2 49.28-81.6 102.4-114.88 159.04-19.52 32.64-35.2 67.84-46.08 104.32-16.32 52.8-7.36 110.08 24 155.84 28.8 44.48 75.52 73.6 128 80.32 51.2 8 103.36-6.72 143.04-40 35.84-28.8 59.52-70.08 65.92-115.84 4.48-35.84-.32-72-13.76-105.28z"/><glyph unicode="" glyph-name="circle_autres" d="M691.2 449.92c0-32.64-8.96-64.96-25.6-92.8l-79.36 79.36c24 56.64-2.56 121.92-59.2 145.6-23.04 9.6-48.64 11.52-72.64 4.8-4.16-1.28-7.68-4.48-8.64-8.64-1.28-4.48.32-8.96 3.52-12.16 0 0 39.04-39.36 52.16-52.48 1.28-1.6 1.6-3.84 1.28-5.76v-.96c-.96-12.8-2.88-25.6-6.08-38.4l-.96-.96-.96-.96c-12.8-3.2-25.92-5.12-39.04-6.08l-.64-.32h-.64c-2.24 0-4.48.96-6.08 2.56l-51.2 51.2c-2.24 2.56-5.76 4.16-9.28 4.16-5.44-.32-10.24-4.16-11.84-9.6-16-59.2 18.88-120.32 78.4-136.32 24-6.4 49.6-4.8 72.32 4.8l80.32-80.32c-29.12-18.56-63.04-28.48-97.6-28.48-100.16-.64-181.76 80-182.72 179.84-.64 100.16 80 181.76 179.84 182.72h2.56c101.12.64 182.08-80.64 182.08-180.8zM1024 448c0-282.88-229.12-512-512-512S0 165.12 0 448s229.12 512 512 512 512-229.12 512-512zm-201.6 36.8c-2.24 9.28-10.88 15.68-20.16 15.36-38.4-.32-69.76 30.08-70.4 68.48-.32 19.84 8 39.04 22.72 52.16 6.72 6.08 7.68 16.64 1.92 23.68-14.72 18.56-31.36 35.52-49.92 50.24-7.36 5.76-17.6 4.8-24-1.92-20.16-21.12-51.2-28.16-78.4-17.6a69.815 69.815 0 00-42.56 68.16c.64 9.28-6.08 17.28-15.36 18.24-23.36 2.88-47.36 2.88-70.72.32-8.96-.96-16-8.96-15.68-17.92.96-29.12-16-56-43.2-67.2-27.2-10.24-57.6-3.2-77.76 17.6-6.08 6.72-16.64 7.68-23.68 1.92-18.24-13.76-35.52-30.72-50.56-49.28-5.76-7.36-5.12-17.6 1.92-24 21.76-19.84 28.8-51.2 17.6-78.4-12.16-26.56-39.04-43.52-68.48-42.56-9.28.64-17.28-6.08-18.24-15.36a295.77 295.77 0 010-71.36c2.56-9.28 10.88-15.68 20.48-15.36 28.48.32 54.08-16.64 64.64-43.2 10.88-27.2 3.84-57.92-17.6-77.76-6.72-6.08-7.68-16.64-1.92-23.68 14.72-18.56 31.36-35.52 49.6-50.24 7.36-5.76 17.6-5.12 24 1.92 20.16 21.12 51.2 28.16 78.4 17.6a69.815 69.815 0 0042.56-68.16c-.64-9.28 6.08-17.28 15.36-18.24 23.36-2.88 47.36-2.88 70.72-.32 8.96.96 16 8.96 15.68 17.92-.96 29.12 16 56 42.88 66.88 27.2 10.24 57.92 3.2 77.76-17.6 6.08-6.72 16.64-7.68 23.68-1.92 18.88 14.72 35.84 31.68 50.88 50.24 5.76 7.36 5.12 17.6-1.92 24-21.76 19.84-28.8 51.2-17.6 78.4 10.88 25.6 36.16 42.56 64.32 42.56h3.84c9.28-.64 17.28 6.08 18.56 15.36 3.52 23.36 3.52 47.36.64 71.04z"/><glyph unicode="" glyph-name="circle_ventillation" d="M512 960C229.12 960 0 730.88 0 448S229.12-64 512-64s512 229.12 512 512-229.12 512-512 512zm-.96-863.68c-194.88 0-352.64 157.76-352.64 352.64S316.16 801.6 511.04 801.6c194.56-.32 352.32-158.08 352.64-352.64 0-194.56-158.08-352.64-352.64-352.64zm0 667.52c-173.76 0-314.88-141.12-314.88-314.88s141.12-314.88 314.88-314.88c173.76.32 314.56 141.12 314.88 314.88-.32 174.08-141.12 314.88-314.88 314.88zM406.72 259.2c-56.64-26.88-108.8 25.92-128.96 60.48s-40 106.56 11.84 142.08c59.52 40.96 157.44 15.04 183.68 7.04-3.2-6.08-4.8-12.8-4.8-19.84 0-20.16 14.4-37.76 34.24-41.6-8.64-33.92-35.84-119.36-96-148.16zm74.24 220.16c-20.16 18.56-91.52 90.56-86.08 162.88 4.8 62.4 76.8 81.28 116.8 81.28S624 704.64 628.8 642.24c5.76-73.6-68.8-147.2-87.04-163.84l-.96.96c-16.64 16.32-43.2 16.32-59.84 0zm263.36-160.64c-20.16-34.56-72.32-87.68-128.96-60.8-60.8 29.12-88 116.16-96.64 149.44 3.84.64 7.36 1.92 10.88 3.52 21.12 10.24 29.76 35.84 19.2 56.64 27.2 8.32 124.16 33.28 183.04-7.04 52.16-35.2 32.32-107.2 12.48-141.76z"/><glyph unicode="" glyph-name="circle_warning" d="M512 960C229.44 959.68.32 730.56 0 448 .32 165.44 229.44-63.68 512-64c282.56.32 511.68 229.44 512 512-.32 282.56-229.44 511.68-512 512zm-51.84-163.84c0 28.8 23.36 51.84 51.84 51.84s51.84-23.36 51.84-51.84V424.32c0-28.8-23.36-51.84-51.84-51.84s-51.84 23.36-51.84 51.84v371.84zM512 75.2c-56.64 0-102.4 45.76-102.4 102.4S455.36 280 512 280s102.4-45.76 102.4-102.4c0-56.64-45.76-102.4-102.4-102.4z"/></font>
</defs>
</svg>
