<?xml version="1.0" standalone="no"?>
<!DOCTYPE svg PUBLIC "-//W3C//DTD SVG 1.1//EN" "http://www.w3.org/Graphics/SVG/1.1/DTD/svg11.dtd" >
<svg xmlns="http://www.w3.org/2000/svg">
<metadata>Generated by IcoMoon</metadata>
<defs>
<font id="cidex" horiz-adv-x="1024">
<font-face units-per-em="1024" ascent="960" descent="-64" />
<missing-glyph horiz-adv-x="1024" />
<glyph unicode="&#x20;" horiz-adv-x="512" d="" />
<glyph unicode="&#xe900;" glyph-name="next" d="M320 17.6l430.4 430.4-430.4 430.4-46.4-44.8 385.6-385.6-385.6-385.6z" />
<glyph unicode="&#xe901;" glyph-name="prev" d="M704 17.6l-430.4 430.4 430.4 430.4 46.4-44.8-385.6-385.6 385.6-385.6z" />
<glyph unicode="&#xe902;" glyph-name="avatar" d="M541.76 354.24c-20.633 28.911-53.563 47.898-90.991 49.274l-0.209 0.006h-2.56c-46.108 0.011-84.135 34.6-89.557 79.247l-0.043 0.433c14.036 10.507 26.074 22.646 36.145 36.323l0.335 0.477c21.799 30.18 36.655 66.745 41.489 106.404l0.111 1.116c1.619 1.753 3.006 3.754 4.093 5.932l0.067 0.148c8.863 20.798 14.035 44.989 14.080 70.382v0.018c0.059 1.651 0.093 3.59 0.093 5.537 0 89.554-71.017 162.52-159.806 165.655l-0.286 0.008c-23.901-0.113-46.454-5.772-66.474-15.754l0.874 0.394c-8.518-0.864-16.24-2.33-23.714-4.394l0.994 0.234c-72.64-20.48-114.24-109.44-91.84-197.12 2.789-10.415 5.74-19.040 9.183-27.411l-0.543 1.491c1.039-2.328 2.325-4.332 3.866-6.11l-0.026 0.030c6.187-58.033 35.161-108.304 77.667-142.4l0.413-0.32c-5.467-45.256-43.636-79.988-89.919-80h-1.921c-63.046-2.304-113.28-53.969-113.28-117.366 0-0.026 0-0.052 0-0.078v0.004-126.4c0-11.841 9.599-21.44 21.44-21.44v0h376.64c11.841 0 21.44 9.599 21.44 21.44v0c0 0.001 0 0.002 0 0.002 0 11.664-9.456 21.12-21.12 21.12-0.113 0-0.225-0.001-0.337-0.003h-355.503v105.28c0.181 41.282 33.598 74.699 74.863 74.88h1.937c15.883 0.424 30.89 3.676 44.698 9.267l-0.858-0.307 100.8-146.24c3.923-5.599 10.346-9.214 17.612-9.214 4.541 0 8.752 1.412 12.218 3.82l-0.071-0.046c2.063 1.587 3.853 3.377 5.39 5.372l0.050 0.068 101.12 145.92c12.851-5.293 27.749-8.546 43.355-8.957l0.165-0.003h2.24c25.201-0.093 47.457-12.621 60.962-31.764l0.158-0.236c3.896-5.416 10.181-8.902 17.28-8.902 11.721 0 21.222 9.501 21.222 21.222 0 4.622-1.477 8.898-3.985 12.383l0.043-0.063zM218.88 815.36c5.169 1.483 11.182 2.511 17.374 2.87l0.226 0.010c3.281 0.105 6.348 0.921 9.085 2.297l-0.125-0.057c14.22 7.267 31.018 11.526 48.811 11.526 0.39 0 0.779-0.002 1.169-0.006h-0.060c65.060-3.491 116.493-57.096 116.493-122.714 0-0.621-0.005-1.241-0.014-1.86l0.001 0.094c-12.693 9.549-28.709 15.311-46.068 15.36h-111.692c-0.049 0-0.107-0.001-0.165-0.001-10.621 0-19.712 6.55-23.455 15.831l-0.060 0.17c-3.76 9.319-12.731 15.776-23.209 15.776-11.544 0-21.258-7.837-24.111-18.482l-0.040-0.174c-6.068-21.489-16.205-40.123-29.613-55.889l0.173 0.209c-10.88 61.76 16.96 119.68 65.28 135.040zM168.96 634.56c18.215 16.859 33.074 37.041 43.664 59.624l0.496 1.176c11.218-8.354 25.336-13.392 40.628-13.44h111.692c0.786 0.069 1.701 0.108 2.625 0.108 13.084 0 24.335-7.853 29.295-19.103l0.081-0.205c0.015-0.911 0.024-1.987 0.024-3.064 0-42.438-13.303-81.769-35.966-114.051l0.423 0.635c-17.503-26.624-46.701-44.321-80.112-45.753l-0.208-0.007c-30.532 1.165-57.275 16.418-74.050 39.407l-0.19 0.273c-20.529 26.068-34.34 58.319-38.322 93.549l-0.078 0.851zM281.6 273.92l-81.6 117.76c21.842 18.179 37.7 42.875 44.61 71.083l0.19 0.917c11.044-3.649 23.756-5.753 36.96-5.753s25.916 2.104 37.82 5.996l-0.86-0.243c7.033-28.984 22.779-53.57 44.268-71.508l0.212-0.172zM911.040 285.12h-2.24c-46.173 0.308-84.178 34.881-89.873 79.547l-0.047 0.453c27.423 21.341 48.718 49.323 61.618 81.571l0.462 1.309c2.694-8.779 10.729-15.051 20.229-15.051 2.261 0 4.438 0.355 6.48 1.013l-0.149-0.042c4.331 1.315 7.948 3.896 10.522 7.308l0.038 0.052c27.369 36.718 43.818 82.979 43.818 133.081 0 54.131-19.201 103.777-51.163 142.5l0.305-0.381c-28.326 34.434-70.488 56.595-117.86 57.915l-0.22 0.005h-8.96c-19.531 9.152-42.413 14.493-66.541 14.493-1.92 0-3.831-0.034-5.735-0.101l0.276 0.008c-54.622-2.56-102.307-30.155-132.131-71.492l-0.349-0.508c-30.579-42.080-48.918-94.774-48.918-151.752 0-12.729 0.915-25.245 2.684-37.484l-0.166 1.397c3.509-26.776 10.818-51.067 21.433-73.487l-0.633 1.487c3.259-7.486 10.593-12.624 19.126-12.624 3.286 0 6.394 0.762 9.156 2.119l-0.122-0.054c3.964 1.733 7.157 4.616 9.23 8.225l0.050 0.095c2.186 3.712 4.299 6.845 6.579 9.846l-0.179-0.246c9.077-29.459 23.561-54.903 42.44-76.392l-0.2 0.232c7.546-8.534 15.828-16.105 24.845-22.735l0.435-0.305c-5.454-45.148-43.45-79.82-89.582-80h-2.258c-62.888-2.468-112.973-53.895-113.28-117.090v-126.43c0-11.841 9.599-21.44 21.44-21.44h520.96c11.841 0 21.44 9.599 21.44 21.44v0 126.4c0 0.022 0 0.048 0 0.074 0 63.221-50.091 114.742-112.75 117.040l-0.21 0.006zM580.16 509.12c-1.827 6.849-3.508 15.42-4.677 24.152l-0.123 1.128c-1.222 7.062-1.92 15.194-1.92 23.49 0 0.067 0 0.134 0 0.201v-0.010c-0.17 3.113-0.266 6.756-0.266 10.422 0 45.859 15.12 88.187 40.647 122.27l-0.381-0.532c22.842 31.715 58.829 52.731 99.816 55.025l0.344 0.015c0.705 0.014 1.535 0.022 2.368 0.022 19.858 0 38.639-4.615 55.328-12.83l-0.736 0.328c2.624-1.433 5.747-2.276 9.067-2.276 0.413 0 0.822 0.013 1.228 0.039l-0.056-0.003h11.52c34.922-0.988 65.816-17.414 86.23-42.663l0.17-0.217c24.569-29.175 39.704-67.003 40.318-108.349l0.002-0.131c0.082-2.053 0.129-4.464 0.129-6.885 0-20.419-3.326-40.060-9.466-58.413l0.377 1.298-6.72 16c-20.012 43.024-54.17 76.664-96.381 95.514l-1.219 0.486c-2.541 1.168-5.512 1.849-8.643 1.849-8.753 0-16.262-5.324-19.465-12.911l-0.052-0.139c-3.112-8.553-6.562-15.835-10.594-22.735l0.354 0.655c-11.262-19.307-31.874-32.075-55.469-32.075-1.087 0-2.168 0.027-3.242 0.081l0.151-0.006h-11.52c-19.367-0.692-37.637-4.505-54.612-10.951l1.172 0.391c-24.916-9.92-46.204-24.016-64.019-41.618l0.019 0.018zM632.64 497.6c18.436 12.587 41.039 20.373 65.413 21.115l0.187 0.005h8.64c1.341-0.061 2.913-0.096 4.493-0.096 38.92 0 72.922 21.055 91.237 52.395l0.27 0.5 3.52 6.080c20.024-12.493 36.382-29.056 48.274-48.631l0.366-0.649s0 0 0-1.92c-2.429-39.832-16.855-75.884-39.673-105.055l0.313 0.415c-17.086-23.219-43.956-38.379-74.408-39.356l-0.152-0.004c-49.92 0-96 47.68-109.44 115.2zM704 344.96c11.044-3.649 23.756-5.753 36.96-5.753s25.916 2.104 37.82 5.996l-0.86-0.243c9.087-36.58 32.29-66.576 63.351-84.456l0.649-0.344c-12.476-44.65-52.797-76.856-100.64-76.856s-88.164 32.207-100.464 76.122l-0.176 0.734c31.71 18.224 54.913 48.22 63.806 83.879l0.194 0.921zM981.44 64h-478.080v104c0 41.178 33.382 74.56 74.56 74.56v0h2.24c7.911 0.425 15.272 1.339 22.465 2.724l-1.025-0.164c18.786-60.975 74.627-104.523 140.64-104.523s121.854 43.548 140.363 103.482l0.277 1.041c6.258-1.221 13.731-2.135 21.338-2.542l0.422-0.018h1.92c0.095 0 0.207 0.001 0.32 0.001 41.178 0 74.56-33.382 74.56-74.56 0 0 0 0 0-0.001v0z" />
<glyph unicode="&#xe903;" glyph-name="circle" d="M915.2 690.56c-60.052-0.048-108.716-48.741-108.716-108.8 0-22.009 6.535-42.491 17.77-59.613l-0.254 0.413-117.44-117.44c-16.883 11.487-37.721 18.34-60.16 18.34s-43.277-6.853-60.536-18.581l0.376 0.241-118.4 118.72c11.131 16.791 17.76 37.409 17.76 59.575 0 60.089-48.711 108.8-108.8 108.8s-108.8-48.711-108.8-108.8c0-22.166 6.629-42.784 18.012-59.979l-0.252 0.404-117.44-118.72c-16.72 11.001-37.221 17.549-59.251 17.549-60.089 0-108.8-48.711-108.8-108.8s48.711-108.8 108.8-108.8c60.089 0 108.8 48.711 108.8 108.8 0 22.030-6.548 42.531-17.803 59.663l0.254-0.412 117.44 117.44c16.664-11.132 37.158-17.765 59.2-17.765s42.535 6.633 59.592 18.012l-0.392-0.246 119.36-119.36c-10.164-16.209-16.193-35.909-16.193-57.018 0-59.912 48.568-108.48 108.48-108.48s108.48 48.568 108.48 108.48c0 21.907-6.494 42.297-17.661 59.351l0.254-0.413 117.44 117.44c16.737-11.032 37.266-17.599 59.328-17.599 60.089 0 108.8 48.711 108.8 108.8s-48.711 108.8-108.8 108.8c-0.158 0-0.315 0-0.472-0.001h0.024zM109.12 250.56c-35.346 0-64 28.654-64 64s28.654 64 64 64c35.346 0 64-28.654 64-64v0 0c0-35.346-28.654-64-64-64v0zM376.64 518.080c-35.346 0-64 28.654-64 64s28.654 64 64 64c35.346 0 64-28.654 64-64v0 0c0-35.346-28.654-64-64-64v0zM647.36 250.56c-35.346 0-64 28.654-64 64s28.654 64 64 64c35.346 0 64-28.654 64-64v0 0c0-35.346-28.654-64-64-64v0zM915.2 518.080c-35.346 0-64 28.654-64 64s28.654 64 64 64c35.346 0 64-28.654 64-64v0 0c0-35.346-28.654-64-64-64v0zM353.6 416c-4.105 4.073-9.759 6.589-16 6.589s-11.895-2.517-16.001-6.591l0.001 0.001-45.44-47.040c-4.095-4.095-6.627-9.752-6.627-16 0-12.497 10.131-22.627 22.627-22.627 6.248 0 11.905 2.533 16 6.627v0l45.44 47.040c4.232 4.030 6.864 9.708 6.864 16s-2.632 11.97-6.855 15.991l-0.009 0.009zM747.84 558.080c-4.105 4.073-9.759 6.589-16 6.589s-11.895-2.517-16.001-6.591l0.001 0.001-43.84-46.080c-4.095-4.095-6.627-9.752-6.627-16 0-12.497 10.131-22.627 22.627-22.627 6.248 0 11.905 2.533 16 6.627l45.76 45.76c4.073 4.105 6.589 9.759 6.589 16s-2.517 11.895-6.591 16.001l0.001-0.001z" />
<glyph unicode="&#xe904;" glyph-name="corn" d="M994.24 960v0c-16.613 0-30.080-13.467-30.080-30.080v0-260.16l-146.56-99.52v316.48c0 16.613-13.467 30.080-30.080 30.080s-30.080-13.467-30.080-30.080v-316.48l-146.56 99.52v260.16c0 16.613-13.467 30.080-30.080 30.080s-30.080-13.467-30.080-30.080v0-601.92c0-0.034 0-0.074 0-0.115 0-120.366 89.443-219.842 205.491-235.589l1.229-0.136v-126.080c-0.102-0.929-0.16-2.007-0.16-3.098 0-16.613 13.467-30.080 30.080-30.080s30.080 13.467 30.080 30.080c0 1.091-0.058 2.169-0.171 3.23l0.011-0.132v126.080c117.207 15.873 206.613 115.24 206.72 235.509v602.251c0 0.001 0 0.001 0 0.002 0 16.5-13.285 29.897-29.743 30.078h-0.017zM757.44 153.28c-83.969 15.013-146.88 87.487-146.88 174.654 0 0.023 0 0.046 0 0.070v-0.004 88l118.080-80.32c8.271-5.63 17.838-10.215 28.071-13.254l0.729-0.186zM757.44 389.76l-146.88 99.52v107.84l118.080-80c8.27-5.727 17.83-10.414 28.063-13.565l0.737-0.195zM964.16 328c0-0.020 0-0.043 0-0.066 0-87.167-62.911-159.641-145.805-174.494l-1.075-0.16v169.6c10.972 3.263 20.542 7.958 29.119 13.972l-0.319-0.212 118.080 79.36zM964.16 488l-146.88-99.52v114.88c10.97 3.346 20.53 8.033 29.147 13.987l-0.347-0.227 118.080 80zM443.52 960v0c-16.613 0-30.080-13.467-30.080-30.080v0-260.16l-146.56-99.52v316.48c0 16.613-13.467 30.080-30.080 30.080s-30.080-13.467-30.080-30.080v0-316.48l-146.56 99.52v260.16c0 16.613-13.467 30.080-30.080 30.080s-30.080-13.467-30.080-30.080v0-601.92c0-0.034 0-0.074 0-0.115 0-120.366 89.443-219.842 205.491-235.589l1.229-0.136v-126.080c-0.102-0.929-0.16-2.007-0.16-3.098 0-16.613 13.467-30.080 30.080-30.080s30.080 13.467 30.080 30.080c0 1.091-0.058 2.169-0.171 3.23l0.011-0.132v126.080c117.277 15.883 206.72 115.359 206.72 235.725 0 0.040 0 0.081 0 0.121v-0.006 601.92c0.001 0.095 0.002 0.207 0.002 0.32 0 16.436-13.324 29.76-29.76 29.76-0.001 0-0.001 0-0.002 0v0zM206.72 153.28c-83.969 15.013-146.88 87.487-146.88 174.654 0 0.023 0 0.046 0 0.070v-0.004 88l118.080-80.32c8.279-5.56 17.837-10.138 28.038-13.241l0.762-0.199zM206.72 389.76l-146.88 99.52v107.84l118.080-80c8.278-5.658 17.83-10.338 28.032-13.551l0.768-0.209zM413.44 328c0-0.020 0-0.043 0-0.066 0-87.167-62.911-159.641-145.805-174.494l-1.075-0.16v169.6c10.975 3.194 20.554 7.896 29.097 13.96l-0.297-0.2 118.080 79.36zM413.44 488l-146.88-98.24v113.6c10.97 3.346 20.53 8.033 29.147 13.987l-0.347-0.227 118.080 80z" />
<glyph unicode="&#xe905;" glyph-name="tank" d="M989 140.6v0h-230.6v34.4c147.8 7.8 265.6 130.6 265.6 280.2s-117.8 272.4-265.6 280.2v18.6c0 24.8-20.2 45-45 45h-91.4c-24.8 0-45-20.2-45-45v-18.2h-296.4c-87 0-167.6-39.4-221.2-108-5.2-6.6-4-16 2.6-21 6.6-5.2 16-4 21 2.6 47.8 61.4 119.8 96.4 197.6 96.4h39v-501h-39c-138.2-0.2-250.6 112.2-250.6 250.2 0 37 7.8 72.6 23.4 105.8 3.6 7.6 0.2 16.4-7.2 20-7.6 3.6-16.4 0.2-20-7.2-17.4-37.4-26.2-77.2-26.2-118.6 0-149.6 117.8-272.4 265.6-280.2v-34.4h-230.6c-8.4 0-15-20.8-15-29v-2.4h984v2.4c0 8.4-6.8 29.2-15 29.2zM622 769h91.4c8.2 0 15-6.8 15-15v-18.2h-121.4v18.2c0 8.2 6.8 15 15 15zM349.8 705.6h107.6v-82.2h-107.6v82.2zM349.8 593.2h107.6v-74h-107.6v74zM349.8 489.2h107.6v-74h-107.6v74zM349.8 385.2h107.6v-74h-107.6v74zM349.8 281.2h107.6v-76.6h-107.6v76.6zM652.2 174.4h76.2v-34h-432.8v34h296.4c8.4 0 15 6.8 15 15s-6.8 15-15 15h-104.6v501.2h256c138.2 0 250.6-112.4 250.6-250.6s-112.4-250.6-250.6-250.6h-91.2c-8.4 0-15-6.8-15-15s6.6-15 15-15z" />
<glyph unicode="&#xe906;" glyph-name="gear" d="M978.24 546.88l-58.56 8.32c-2.442 0.183-4.448 1.864-5.11 4.119l-0.010 0.041c-9.805 36.497-23.147 68.408-40.091 97.992l1.051-1.992c-0.608 0.899-0.971 2.007-0.971 3.2s0.363 2.301 0.984 3.22l-0.013-0.020c12.16 15.68 24.32 32 35.84 47.36 6.487 8.813 10.382 19.882 10.382 31.861 0 14.765-5.917 28.148-15.509 37.907l-63.992 63.992c-9.751 9.585-23.134 15.502-37.899 15.502-11.979 0-23.048-3.895-32.010-10.487l0.15 0.105c-15.68-11.52-32-23.68-47.36-35.84-0.899-0.608-2.007-0.971-3.2-0.971s-2.301 0.363-3.22 0.984l0.020-0.013c-27.581 15.824-59.486 29.162-93.1 38.363l-2.9 0.677c-2.352 0.582-4.081 2.639-4.16 5.111v0.009c-2.56 19.52-5.44 39.36-8.32 58.56-4.395 25.484-26.132 44.691-52.435 45.119l-0.045 0.001h-91.52c-26.799-0.162-48.965-19.791-53.079-45.451l-0.041-0.309c-2.88-19.2-5.76-38.72-8.32-58.56-0.183-2.442-1.864-4.448-4.119-5.11l-0.041-0.010c-36.497-9.805-68.408-23.147-97.992-40.091l1.992 1.051c-0.899-0.608-2.007-0.971-3.2-0.971s-2.301 0.363-3.22 0.984l0.020-0.013c-15.68 12.16-32 24.32-47.36 35.84-8.813 6.487-19.882 10.382-31.861 10.382-14.765 0-28.148-5.917-37.907-15.509l-63.992-63.992c-9.585-9.751-15.502-23.134-15.502-37.899 0-11.979 3.895-23.048 10.487-32.010l-0.105 0.15c11.52-15.68 23.68-32 35.84-47.36 0.608-0.899 0.971-2.007 0.971-3.2s-0.363-2.301-0.984-3.22l0.013 0.020c-15.893-27.592-29.235-59.503-38.379-93.143l-0.661-2.857c-0.582-2.352-2.639-4.081-5.111-4.16h-0.009l-58.56-8.32c-25.484-4.395-44.691-26.132-45.119-52.435l-0.001-0.045v-91.52c0.162-26.799 19.791-48.965 45.451-53.079l0.309-0.041 58.56-8.32c2.442-0.183 4.448-1.864 5.11-4.119l0.010-0.041c9.805-36.497 23.147-68.408 40.091-97.992l-1.051 1.992c0.608-0.899 0.971-2.007 0.971-3.2s-0.363-2.301-0.984-3.22l0.013 0.020c-12.16-15.68-24.32-32-35.84-47.36-6.487-8.813-10.382-19.882-10.382-31.861 0-14.765 5.917-28.148 15.509-37.907l63.992-63.992c9.751-9.585 23.134-15.502 37.899-15.502 11.979 0 23.048 3.895 32.010 10.487l-0.15-0.105c15.68 11.52 32 23.68 47.36 35.84 0.899 0.608 2.007 0.971 3.2 0.971s2.301-0.363 3.22-0.984l-0.020 0.013c27.592-15.893 59.503-29.235 93.143-38.379l2.857-0.661c2.296-0.672 3.977-2.678 4.159-5.101l0.001-0.019c2.56-19.84 5.44-39.36 8.32-58.56 4.395-25.484 26.132-44.691 52.435-45.119l0.045-0.001h91.52c26.799 0.162 48.965 19.791 53.079 45.451l0.041 0.309c2.88 19.2 5.76 39.040 8.32 58.56 0.183 2.442 1.864 4.448 4.119 5.11l0.041 0.010c36.497 9.805 68.408 23.147 97.992 40.091l-1.992-1.051c0.899 0.608 2.007 0.971 3.2 0.971s2.301-0.363 3.22-0.984l-0.020 0.013c15.68-12.16 32-24.32 47.36-35.84 8.813-6.487 19.882-10.382 31.861-10.382 14.765 0 28.148 5.917 37.907 15.509l63.992 63.992c9.585 9.751 15.502 23.134 15.502 37.899 0 11.979-3.895 23.048-10.487 32.010l0.105-0.15c-11.52 15.68-23.68 32-35.84 47.36-0.608 0.899-0.971 2.007-0.971 3.2s0.363 2.301 0.984 3.22l-0.013-0.020c15.893 27.592 29.235 59.503 38.379 93.143l0.661 2.857c0.672 2.296 2.678 3.977 5.101 4.159l0.019 0.001 58.56 8.32c25.484 4.395 44.691 26.132 45.119 52.435l0.001 0.045v91.52c-0.162 26.799-19.791 48.965-45.451 53.079l-0.309 0.041zM976.32 402.24c0-0.011 0-0.023 0-0.036 0-2.956-2.226-5.391-5.093-5.722l-0.027-0.002-57.92-8.32c-21.616-2.715-39.024-18.079-44.71-38.346l-0.090-0.374c-9.061-31.97-20.841-59.799-35.554-85.745l0.994 1.905c-4.457-7.607-7.089-16.752-7.089-26.512 0-12.38 4.235-23.771 11.335-32.803l-0.087 0.114 35.2-46.4c0.799-1.056 1.28-2.392 1.28-3.84s-0.481-2.784-1.292-3.856l0.012 0.016-64-64c-1.056-0.799-2.392-1.28-3.84-1.28s-2.784 0.481-3.856 1.292l0.016-0.012-46.72 35.2c-8.983 7.088-20.468 11.37-32.953 11.37-9.646 0-18.696-2.556-26.508-7.027l0.261 0.138c-24.087-14.063-51.929-25.963-81.283-34.262l-2.557-0.618c-20.681-5.823-36.107-23.181-39.009-44.522l-0.031-0.278c-2.24-19.52-5.12-39.040-8-57.92-0.333-2.894-2.769-5.12-5.724-5.12-0.013 0-0.025 0-0.038 0h-92.798c-0.011 0-0.023 0-0.036 0-2.956 0-5.391 2.226-5.722 5.093l-0.002 0.027c-2.88 18.88-5.76 38.4-8.32 57.92-2.8 21.579-18.126 38.946-38.343 44.708l-0.377 0.092c-31.97 9.061-59.799 20.841-85.745 35.554l1.905-0.994c-7.607 4.457-16.752 7.089-26.512 7.089-12.38 0-23.771-4.235-32.803-11.335l0.114 0.087-46.4-36.8c-0.99-0.827-2.276-1.329-3.68-1.329s-2.69 0.502-3.689 1.336l0.009-0.007-64 64c-0.799 1.056-1.28 2.392-1.28 3.84s0.481 2.784 1.292 3.856l-0.012-0.016 35.2 46.72c7.236 9.038 11.612 20.638 11.612 33.26 0 10.042-2.77 19.436-7.587 27.462l0.135-0.242c-14.131 24.096-26.036 51.945-34.278 81.326l-0.602 2.514c-5.776 20.641-23.184 36.005-44.539 38.693l-0.261 0.027-57.92 8.32c-2.722 0.326-4.812 2.621-4.812 5.404 0 0.125 0.004 0.25 0.013 0.373l-0.001-0.017v91.52c-0.007 0.107-0.012 0.231-0.012 0.356 0 2.783 2.090 5.078 4.786 5.401l0.026 0.003c19.2 2.88 38.4 5.76 57.92 8 21.619 2.933 38.977 18.359 44.709 38.661l0.091 0.379c8.32 31.883 19.595 59.768 33.919 85.736l-0.959-1.896c4.497 7.606 7.154 16.762 7.154 26.539 0 12.381-4.262 23.767-11.398 32.771l0.084-0.11c-11.84 14.4-23.68 31.040-35.2 46.4-0.827 0.99-1.329 2.276-1.329 3.68s0.502 2.69 1.336 3.689l-0.007-0.009 64 64c1.056 0.799 2.392 1.28 3.84 1.28s2.784-0.481 3.856-1.292l-0.016 0.012 46.72-35.2c9.038-7.236 20.638-11.612 33.26-11.612 10.042 0 19.436 2.77 27.462 7.587l-0.242-0.135c24.087 14.063 51.929 25.963 81.283 34.262l2.557 0.618c20.594 5.854 35.92 23.221 38.691 44.531l0.029 0.269c2.56 19.52 5.44 39.040 8.32 57.92 0.333 2.894 2.769 5.12 5.724 5.12 0.013 0 0.025 0 0.038 0h91.518c0.011 0 0.023 0 0.036 0 2.956 0 5.391-2.226 5.722-5.093l0.002-0.027c2.88-18.88 5.76-38.4 8.32-57.92 2.715-21.616 18.079-39.024 38.346-44.71l0.374-0.090c31.892-8.351 59.774-19.624 85.755-33.926l-1.915 0.966c7.607-4.457 16.752-7.089 26.512-7.089 12.38 0 23.771 4.235 32.803 11.335l46.286 35.113c1.056 0.799 2.392 1.28 3.84 1.28s2.784-0.481 3.856-1.292l-0.016 0.012 64-64c0.799-1.056 1.28-2.392 1.28-3.84s-0.481-2.784-1.292-3.856l0.012 0.016-35.2-46.72c-7.014-8.918-11.249-20.308-11.249-32.688 0-9.759 2.632-18.904 7.225-26.763l-0.136 0.252c13.803-24.059 25.589-51.895 33.915-81.187l0.645-2.653c5.823-20.681 23.181-36.107 44.522-39.009l0.278-0.031 57.92-8c2.894-0.333 5.12-2.769 5.12-5.724 0-0.013 0-0.025 0-0.038v0.002zM512 670.4c-123.712 0-224-100.288-224-224s100.288-224 224-224c123.712 0 224 100.288 224 224v0c0.004 0.477 0.006 1.041 0.006 1.606 0 122.828-99.572 222.4-222.4 222.4-0.565 0-1.129-0.002-1.692-0.006l0.087 0.001zM686.4 446.4c-0.905-95.628-78.637-172.8-174.393-172.8-96.318 0-174.4 78.082-174.4 174.4 0 96.316 78.077 174.396 174.392 174.4v0c96.318 0 174.4-78.082 174.4-174.4v0z" />
<glyph unicode="&#xe907;" glyph-name="hands" d="M1019.84 524.48l-171.52 224c-3.663 4.712-9.333 7.714-15.703 7.714-4.039 0-7.796-1.207-10.931-3.28l0.074 0.046-110.72-70.4h-144.32c-0.818 0.158-1.758 0.248-2.72 0.248s-1.902-0.090-2.814-0.263l0.094 0.015-112-32-116.16 32-112.64 69.12c-3.096 2.094-6.913 3.343-11.022 3.343-6.276 0-11.872-2.914-15.507-7.464l-0.031-0.040-189.44-235.52c-2.75-3.417-4.414-7.809-4.414-12.59 0-6.081 2.692-11.533 6.95-15.229l0.025-0.021 99.2-85.44 89.28-120.32c-11.475-12.573-18.503-29.375-18.503-47.818 0-36.396 27.37-66.399 62.65-70.55l0.334-0.032c0-3.52 0-7.040 0-10.88 0-0.001 0-0.002 0-0.003 0-39.009 31.442-70.675 70.366-71.037h0.034c0-39.234 31.806-71.040 71.040-71.040v0c1.63-0.148 3.525-0.232 5.44-0.232s3.81 0.084 5.683 0.249l-0.243-0.017c3.531-36.249 33.846-64.349 70.724-64.349 2.478 0 4.926 0.127 7.338 0.374l-0.303-0.025c16.975 1.825 31.93 9.303 43.205 20.485l10.875 10.875 4.48-3.84c12.717-12.115 29.97-19.569 48.963-19.569 39.234 0 71.040 31.806 71.040 71.040 0 0.242-0.001 0.484-0.004 0.726v-0.037c0.384-0.007 0.837-0.012 1.291-0.012 38.788 0 70.316 31.087 71.028 69.705l0.001 0.067v3.52c0.289-0.004 0.63-0.007 0.971-0.007 38.787 0 70.313 31.084 71.028 69.7l0.001 0.067v2.56c0.383-0.007 0.834-0.012 1.286-0.012 38.724 0 70.179 31.124 70.713 69.721l0.001 0.050c0.006 0.348 0.010 0.758 0.010 1.169 0 14.335-4.304 27.665-11.691 38.768l0.161-0.258 64 136.32 97.92 84.16c4.521 3.783 7.377 9.428 7.377 15.74 0 3.876-1.077 7.501-2.948 10.592l0.051-0.091zM48 502.72l166.080 205.44 80.96-51.52-176.32-215.040zM224 208.96c-5.291 5.692-8.537 13.347-8.537 21.76s3.247 16.068 8.555 21.78l-0.018-0.020 24.64 24.32c0.673 0.832 1.408 1.567 2.212 2.218l0.028 0.022c4.581 3.641 10.277 6.067 16.503 6.709l0.137 0.011h3.2c8.709-0.309 16.487-4.051 22.068-9.907l0.012-0.013c5.291-5.692 8.537-13.347 8.537-21.76s-3.247-16.068-8.555-21.78l0.018 0.020-23.68-23.68c-5.767-5.656-13.675-9.147-22.399-9.147-8.883 0-16.921 3.62-22.719 9.464l-0.002 0.002zM288 128v0c-5.291 5.692-8.537 13.347-8.537 21.76s3.247 16.068 8.555 21.78l-0.018-0.020 47.68 47.68c5.616 4.983 13.051 8.027 21.196 8.027 5.096 0 9.914-1.191 14.19-3.31l-0.187 0.084c10.284-5.461 17.168-16.104 17.168-28.355 0-1.284-0.076-2.551-0.223-3.796l0.015 0.151c-1.009-7.325-4.367-13.727-9.276-18.556l-0.004-0.004-46.4-45.44c-5.731-5.471-13.512-8.838-22.080-8.838s-16.349 3.367-22.092 8.85l0.012-0.012zM403.52 55.68c-5.692-5.291-13.347-8.537-21.76-8.537s-16.068 3.247-21.78 8.555l0.020-0.018c-5.291 5.692-8.537 13.347-8.537 21.76s3.247 16.068 8.555 21.78l-0.018-0.020 47.68 47.68c5.708 5.363 13.414 8.657 21.889 8.657 5.581 0 10.829-1.429 15.397-3.941l-0.166 0.084c9.118-5.744 15.087-15.758 15.087-27.165 0-1.706-0.134-3.381-0.391-5.016l0.023 0.181c-0.988-7.172-4.224-13.452-8.963-18.243l0.003 0.003zM508.48 16l-23.68-23.68c-5.671-5.202-13.263-8.39-21.6-8.39s-15.929 3.188-21.624 8.411l0.024-0.021c-5.291 5.692-8.537 13.347-8.537 21.76s3.247 16.068 8.555 21.78l-0.018-0.020 26.56 26.56c3.831 3.086 8.474 5.327 13.554 6.365l0.206 0.035h6.080c8.667-0.218 16.445-3.85 22.075-9.595l0.005-0.005 1.92-2.24c3.877-5.231 6.206-11.813 6.206-18.939 0-8.853-3.595-16.867-9.406-22.66l-0.001-0.001zM816 216.64c-5.692-5.291-13.347-8.537-21.76-8.537s-16.068 3.247-21.78 8.555l0.020-0.018-128 130.56c-3.595 3.621-8.576 5.862-14.080 5.862s-10.485-2.241-14.079-5.861l-0.001-0.001c-3.362-3.592-5.426-8.435-5.426-13.76s2.064-10.168 5.437-13.771l-0.010 0.011 130.56-131.84c5.291-5.692 8.537-13.347 8.537-21.76s-3.247-16.068-8.555-21.78l0.018 0.020c-5.692-5.291-13.347-8.537-21.76-8.537s-16.068 3.247-21.78 8.555l0.020-0.018-87.36 88.32c-3.681 3.564-8.704 5.761-14.24 5.761s-10.559-2.197-14.245-5.766l0.005 0.005c-3.362-3.592-5.426-8.435-5.426-13.76s2.064-10.168 5.437-13.771l-0.010 0.011 84.48-88v-1.6c2.539-4.482 4.035-9.844 4.035-15.555 0-17.673-14.327-32-32-32-5.711 0-11.073 1.496-15.715 4.118l0.16-0.083-47.68 48c-3.521 3.077-8.159 4.953-13.235 4.953-11.134 0-20.16-9.026-20.16-20.16 0-4.516 1.485-8.685 3.993-12.046l-0.038 0.053 46.080-46.72s0 0 1.6-1.6c5.291-5.692 8.537-13.347 8.537-21.76s-3.247-16.068-8.555-21.78l0.018 0.020c-5.692-5.291-13.347-8.537-21.76-8.537s-16.068 3.247-21.78 8.555l0.020-0.018-4.48 3.52c-1.6 0-1.92 1.6 0 3.2s1.92 3.2 2.56 4.8l1.92 5.44c2.021 6.623 3.185 14.235 3.185 22.12 0 3.483-0.227 6.913-0.667 10.276l0.042-0.396c-4.357 31.28-28.649 55.789-59.45 60.432l-0.39 0.048c1.033 4.582 1.625 9.845 1.625 15.245 0 18.812-7.182 35.946-18.955 48.81l0.049-0.055c-12.64 13.58-30.608 22.055-50.555 22.080h-2.245c0.023 0.675 0.037 1.469 0.037 2.265 0 38.042-30.311 69.004-68.1 70.053l-0.097 0.002c-0.834 0.039-1.811 0.061-2.794 0.061-5.138 0-10.134-0.605-14.922-1.749l0.436 0.088c-5.262 34.311-34.571 60.285-69.946 60.285-3.661 0-7.256-0.278-10.767-0.814l0.393 0.049c-15.024-2.41-28.164-9.162-38.431-18.91l0.031 0.030-77.44 104.64 185.6 227.52 59.2-16.32-77.12-137.6c-5.692-9.963-9.049-21.895-9.049-34.612 0-26.139 14.181-48.966 35.27-61.207l0.339-0.181 3.2-1.6c2.245-1.486 4.866-2.978 7.585-4.298l0.415-0.182c6.922-2.487 14.909-3.925 23.232-3.925 26.267 0 49.189 14.32 61.386 35.58l0.182 0.345 50.24 88.64 89.6-6.080 238.72-239.040c5.585-5.754 9.028-13.614 9.028-22.277 0-8.168-3.060-15.62-8.096-21.275l0.028 0.032zM824.32 308.8l-224 224s0 0 0 0c-3.169 2.495-7.126 4.125-11.444 4.475l-0.076 0.005-110.72 6.72c-0.497 0.044-1.074 0.069-1.658 0.069-7.333 0-13.737-3.978-17.171-9.894l-0.051-0.095-56.32-99.84c-5.832-6.061-14.012-9.826-23.072-9.826-17.673 0-32 14.327-32 32 0 2.809 0.362 5.533 1.042 8.129l-0.050-0.223 75.52 133.12 32 8.64 113.92 32h137.92l171.84-218.56zM905.28 454.72l-160 202.24 81.28 51.84 148.48-192zM620.48 719.040c5.526 0.099 10.495 2.407 14.076 6.076l0.004 0.004 137.28 136.96c3.564 3.681 5.761 8.704 5.761 14.24s-2.197 10.559-5.766 14.245l0.005-0.005c-3.61 3.718-8.656 6.025-14.24 6.025s-10.63-2.307-14.235-6.020l-137.285-137.285c-3.545-3.63-5.732-8.6-5.732-14.080s2.187-10.45 5.735-14.084l-0.004 0.004c3.677-3.717 8.763-6.034 14.391-6.080h0.009zM620.48 719.040v0 0 0zM389.44 725.12c3.724-4.726 9.448-7.733 15.874-7.733 11.134 0 20.16 9.026 20.16 20.16 0 6.346-2.932 12.007-7.515 15.703l-0.039 0.030-137.28 137.28c-3.61 3.718-8.656 6.025-14.24 6.025s-10.63-2.307-14.235-6.020l-0.005-0.005c-3.564-3.681-5.761-8.704-5.761-14.24s2.197-10.559 5.766-14.245l-0.005 0.005zM512 719.040v0c11.134 0 20.16 9.026 20.16 20.16v0 113.6c0 11.134-9.026 20.16-20.16 20.16s-20.16-9.026-20.16-20.16v-113.6c0-11.134 9.026-20.16 20.16-20.16v0zM519.68 914.56c6.521 3.428 10.892 10.155 10.892 17.903 0 11.134-9.026 20.16-20.16 20.16-5.646 0-10.749-2.321-14.409-6.060l-0.004-0.004c-3.554-3.632-5.748-8.608-5.748-14.097 0-11.134 9.026-20.16 20.16-20.16 3.386 0 6.577 0.835 9.378 2.309l-0.11-0.053z" />
<glyph unicode="&#xe908;" glyph-name="link" d="M726 640.667q88 0 150-63t62-151-62-151-150-63h-172v82h172q54 0 93 39t39 93-39 93-93 39h-172v82h172zM342 384.667v84h340v-84h-340zM166 426.667q0-54 39-93t93-39h172v-82h-172q-88 0-150 63t-62 151 62 151 150 63h172v-82h-172q-54 0-93-39t-39-93z" />
<glyph unicode="&#xe909;" glyph-name="download" d="M256 340.667h86q0-70 50-120t120-50 120 50 50 120h86q0-106-75-181t-181-75-181 75-75 181zM470 724.667h84v-238h150l-192-192-192 192h150v238z" />
<glyph unicode="&#xe90a;" glyph-name="ok" d="M870.080 505.28c-14.196-1.007-25.331-12.771-25.331-27.136 0-0.586 0.019-1.167 0.055-1.743l-0.004 0.079c0-9.6 0-18.88 0-28.48-0.001-218.439-177.081-395.519-395.52-395.519s-395.52 177.080-395.52 395.52c0 218.44 177.080 395.52 395.52 395.52 0.338 0 0.675 0 1.013-0.001h-0.053c0.38 0.001 0.829 0.002 1.279 0.002 89.101 0 171.265-29.703 237.13-79.748l-0.969 0.706c4.115-2.635 9.135-4.2 14.521-4.2 15.022 0 27.2 12.178 27.2 27.2 0 8.348-3.761 15.817-9.68 20.807l-0.041 0.034c-74.176 55.896-167.881 89.521-269.44 89.521-248.661 0-450.24-201.579-450.24-450.24s201.579-450.24 450.24-450.24c248.661 0 450.24 201.579 450.24 450.24 0 0.14 0 0.28 0 0.42v-0.021c0 10.88 0 21.76 0 32-0.934 14.261-12.73 25.475-27.145 25.475-1.147 0-2.278-0.071-3.387-0.209l0.133 0.013zM992 836.48c-19.285 19.29-45.929 31.221-75.36 31.221s-56.075-11.931-75.36-31.221v0l-393.28-394.24-140.16 139.52c-19.315 19.355-46.019 31.328-75.52 31.328-58.922 0-106.688-47.766-106.688-106.688 0-29.421 11.909-56.061 31.17-75.362l-0.002 0.002 240.96-240.64c12.789-12.746 30.434-20.627 49.92-20.627s37.131 7.881 49.922 20.629l-0.002-0.002 494.4 495.040c19.386 19.3 31.382 46.009 31.382 75.52s-11.996 56.22-31.378 75.516l-0.004 0.004zM953.6 724.16l-494.4-495.040c-2.9-2.923-6.919-4.733-11.36-4.733s-8.46 1.81-11.359 4.732l-240.641 240.641c-9.467 9.395-15.328 22.413-15.328 36.8s5.861 27.405 15.324 36.797l0.003 0.003c9.465 9.314 22.461 15.065 36.8 15.065s27.335-5.751 36.807-15.072l-0.007 0.007 143.36-144c8.939-8.767 21.198-14.179 34.72-14.179s25.781 5.411 34.728 14.186l398.392 398.392c9.611 10.952 23.636 17.828 39.268 17.828 28.807 0 52.16-23.353 52.16-52.16 0-15.632-6.876-29.658-17.769-39.217l-0.059-0.051z" />
<glyph unicode="&#xe90b;" glyph-name="fullscreen_exit" d="M682 596.667h128v-84h-212v212h84v-128zM598 128.667v212h212v-84h-128v-128h-84zM342 596.667v128h84v-212h-212v84h128zM214 256.667v84h212v-212h-84v128h-128z" />
<glyph unicode="&#xe90c;" glyph-name="plus" d="M512 960c-282.77 0-512-229.23-512-512s229.23-512 512-512c282.77 0 512 229.23 512 512v0c0 282.77-229.23 512-512 512v0zM512-32c-265.097 0-480 214.903-480 480s214.903 480 480 480c265.097 0 480-214.903 480-480v0c0-265.097-214.903-480-480-480v0zM560.32 750.72h-63.040v-288h-288v-63.040h288v-271.36h63.040v271.36h271.36v63.040h-271.36v288z" />
<glyph unicode="&#xe90d;" glyph-name="replay" d="M512 724.667q142 0 242-100t100-240q0-142-101-242t-241-100-241 100-101 242h86q0-106 75-181t181-75 181 75 75 181-75 181-181 75v-172l-214 214 214 214v-172z" />
<glyph unicode="&#xe90e;" glyph-name="eau" d="M399.68 78.72c-96.532 30.639-165.257 119.456-165.257 224.324 0 25.019 3.912 49.125 11.157 71.739l-0.46-1.663c8.304 26.532 20.301 49.604 35.626 70.034l-0.426-0.594c0.616 0.831 1.154 1.78 1.568 2.792l0.032 0.088c1.174 2.48 1.859 5.388 1.859 8.456 0 11.134-9.026 20.16-20.16 20.16-6.463 0-12.216-3.042-15.906-7.772l-0.034-0.045c-33.732-45.192-54.008-102.148-54.008-163.84s20.276-118.648 54.527-164.568l-0.519 0.728c34.524-45.607 81.838-79.89 136.588-97.686l1.972-0.554c1.867-0.619 4.016-0.976 6.248-0.976 8.91 0 16.49 5.689 19.308 13.633l0.044 0.143c0.562 1.783 0.886 3.834 0.886 5.96 0 8.876-5.647 16.433-13.544 19.275l-0.143 0.045zM913.6 491.52c-0.093 39.611-13.047 76.179-34.905 105.768l0.345-0.488-128 188.16c-3.6 5.42-9.679 8.944-16.581 8.944-4.21 0-8.113-1.311-11.324-3.547l0.065 0.043c-2.276-1.322-4.118-3.164-5.402-5.37l-0.038-0.070-52.16-80.96-165.44 247.040c-3.6 5.42-9.679 8.944-16.581 8.944-4.21 0-8.113-1.311-11.324-3.547l0.065 0.043c-2.276-1.322-4.118-3.164-5.402-5.37l-0.038-0.070-283.84-421.44c-45.96-61.283-73.597-138.609-73.597-222.39 0-205.892 166.908-372.8 372.8-372.8s372.8 166.908 372.8 372.8c0 0.559-0.001 1.117-0.004 1.676v-0.086c0.002 0.394 0.002 0.86 0.002 1.326 0 16.911-1.164 33.55-3.416 49.841l0.214-1.887c37.655 32.481 61.438 80.151 61.76 133.384v0.056zM736 737.92l110.4-163.52c16.889-22.624 27.040-51.137 27.040-82.022 0-76.171-61.749-137.92-137.92-137.92s-137.92 61.749-137.92 137.92c0 30.885 10.151 59.398 27.3 82.386l-0.26-0.364 56.64 84.48zM816.96 308.8c-0.446-183.463-149.274-332.017-332.799-332.017-183.8 0-332.8 149-332.8 332.8 0 73.974 24.135 142.31 64.96 197.565l-0.641-0.908 267.84 397.76 156.48-234.24-48-73.28c-21.612-29.11-34.596-65.75-34.596-105.422 0-98.263 79.657-177.92 177.92-177.92 29.44 0 57.21 7.15 81.668 19.809l-0.992-0.467c0-8 0.32-15.68 0.32-23.68zM664.96 496.32c0 0.084-0.001 0.183-0.001 0.281 0 9.969 2.12 19.443 5.935 27.996l-0.174-0.437c1.044 2.334 1.652 5.059 1.652 7.925 0 8.204-4.98 15.246-12.082 18.266l-0.13 0.049c-2.357 1.046-5.107 1.655-7.999 1.655-8.016 0-14.939-4.678-18.188-11.454l-0.052-0.121c-6.018-13.109-9.527-28.44-9.527-44.591 0-37.288 18.703-70.208 47.24-89.89l0.366-0.239c3.043-1.941 6.753-3.094 10.732-3.094 7.183 0 13.488 3.756 17.059 9.411l0.049 0.083c1.924 3.003 3.066 6.666 3.066 10.596 0 6.716-3.337 12.652-8.443 16.242l-0.063 0.042c-17.893 12.53-29.447 33.049-29.447 56.267 0 0.356 0.003 0.712 0.008 1.067l-0.001-0.054zM473.92 50.88c-3.003 7.378-10.118 12.484-18.426 12.484-2.824 0-5.51-0.59-7.942-1.653l0.128 0.050c-7.335-3.125-12.384-10.273-12.384-18.6 0-2.755 0.553-5.381 1.553-7.773l-0.049 0.133c2.992-7.401 10.119-12.527 18.443-12.527 9.958 0 18.203 7.336 19.624 16.899l0.013 0.108c0.27 1.175 0.424 2.525 0.424 3.91 0 2.514-0.509 4.91-1.429 7.089l0.045-0.12zM725.12 387.52c3.134-2.105 6.992-3.36 11.144-3.36 11.134 0 20.16 9.026 20.16 20.16s-9.026 20.16-20.16 20.16c-4.151 0-8.010-1.255-11.216-3.406l0.073 0.046c-5.438-3.668-8.968-9.806-8.968-16.768 0-4.257 1.319-8.205 3.571-11.459l-0.044 0.067c1.504-2.133 3.307-3.936 5.371-5.394l0.069-0.046z" />
<glyph unicode="&#xe90f;" glyph-name="agro" d="M395.928 562.268c-8.626 9.442-20.908 14.972-33.694 15.17-25.718 0.33-46.994-20.174-47.43-45.872-0.14-8.284 6.462-15.112 14.744-15.252 0.088-0.002 0.172-0.002 0.26-0.002 8.166 0 14.854 6.55 14.992 14.748 0.154 9.178 7.698 16.542 16.964 16.382 4.626-0.072 8.892-1.992 12.014-5.408 5.588-6.118 15.078-6.546 21.192-0.958 6.116 5.586 6.546 15.076 0.958 21.192zM475.732 513.382c-4.598 10.808-13.548 19.338-24.562 23.404-22.148 8.17-46.838-3.184-55.044-25.306-2.882-7.768 1.080-16.4 8.846-19.282 1.72-0.638 3.482-0.94 5.214-0.94 6.094 0 11.822 3.74 14.066 9.788 2.464 6.644 9.89 10.044 16.53 7.594 3.338-1.232 5.946-3.718 7.34-6.998 3.242-7.622 12.054-11.178 19.674-7.934 7.626 3.242 11.176 12.050 7.936 19.674zM572.41 646.231c-5.864 5.854-15.362 5.842-21.212-0.022l-14.14-14.168c-5.852-5.864-5.842-15.362 0.022-21.212 2.926-2.922 6.76-4.382 10.594-4.382 3.844 0 7.688 1.468 10.618 4.404l14.14 14.168c5.852 5.864 5.842 15.362-0.022 21.212zM479.088 452.584h-19.992c-8.286 0-15-6.716-15-15s6.714-15 15-15h19.992c8.286 0 15 6.716 15 15s-6.714 15-15 15zM632.376 452.584h-19.994c-8.286 0-15-6.716-15-15s6.716-15 15-15h19.994c8.284 0 15 6.716 15 15s-6.716 15-15 15zM1023.518 182.119l-3.906 21.084c-2.49 13.472-14.254 23.25-27.972 23.25-1.722 0-3.458-0.158-5.166-0.472l-79.52-14.608 36.012 24.074c9.438 6.308 14.208 17.592 12.15 28.786-0.572 3.066-1.644 6.008-3.196 8.762l-10.898 19.298c-3.734 6.63-10.102 11.556-17.452 13.508-3.6 0.96-7.364 1.174-11.036 0.696 4.010 22.132 6.078 44.736 6.078 67.746 0 10.21-6.14 18.996-14.91 22.898 11.46 27.256 12.242 58.46 0.914 87.036-0.918 2.324-2.282 4.398-4.048 6.166-1.752 1.752-3.802 3.106-6.128 4.040-13.574 5.406-27.84 8.146-42.402 8.146-1.862 0-3.716-0.048-5.564-0.136-2.078 41.866-36.728 75.288-79.028 75.288-5.57 0-11.002-0.592-16.248-1.696 3.644 21.8 1.498 44.606-6.992 66.018-0.912 2.354-2.282 4.466-4.144 6.358-1.792 1.792-3.894 3.174-6.226 4.1-14.622 5.824-29.99 8.776-45.678 8.776-23.632 0-46.238-6.644-65.754-18.996-7.13 20.654-18.888 40.044-35.316 56.51-4.812 4.82-11.212 7.476-18.022 7.476s-13.21-2.656-18.028-7.48l-72.626-72.792c-13.44 11.988-31.126 19.154-50.322 19.154-4.356 0-8.754-0.382-13.072-1.134-15.646-2.724-30.044-10.382-41.082-21.598-14.154 6.83-30.368 9.16-45.95 6.448-3.428-0.596-6.754-1.436-9.982-2.46v56.092c0 38.628-31.046 70.11-69.45 70.774v31.812c11.756 2.034 20.732 12.28 20.732 24.608v72.078c0 13.784-11.214 25-25 25h-121.982c-13.786 0-25-11.216-25-25v-72.078c0-12.328 8.976-22.574 20.732-24.608v-31.808c-38.404-0.662-69.448-32.144-69.448-70.774v-437.79c-29.948-27.046-48.592-64.784-48.592-106.516 0-82.092 72.050-148.879 160.613-148.879l600.372 0.176c20.492 0.008 39.764 9.014 52.872 24.706 12.768 15.276 18.194 35.118 15.068 54.686l119.914-21.55c1.66-0.298 3.36-0.45 5.046-0.45 5.98 0 11.71 1.836 16.562 5.304 6.238 4.456 10.46 11.354 11.586 18.92l3.248 21.794c0.468 3.122 0.416 6.266-0.154 9.348-2.064 11.144-10.55 19.986-21.62 22.522l-42.266 9.696 79.442 14.594c7.492 1.376 13.992 5.582 18.304 11.844 4.304 6.246 5.912 13.794 4.532 21.256zM852.039 472.532c9.030 0 17.908-1.43 26.444-4.248 7.628-23.228 4.772-48.282-7.172-68.978h-40.408l12.894 12.924c5.852 5.864 5.84 15.362-0.026 21.214s-15.364 5.842-21.212-0.024l-6.822-6.838c-3.198 10.53-8.782 19.958-16.122 27.692 14.888 11.822 33.164 18.258 52.424 18.258zM767.447 547.684c27.090 0 49.128-22.104 49.128-49.274 0-0.504-0.024-1.002-0.038-1.502-15.812-5.142-30.386-13.732-42.816-25.398-1.978 0.75-3.984 1.446-6.044 2.016-4.388 23.704-20.362 42.704-41.464 51.578 8.758 13.568 23.954 22.58 41.234 22.58zM688.157 631.239c10.188 0 20.2-1.648 29.848-4.908 7.754-23.056 6.17-47.822-3.71-69.274-8.122-7.398-14.712-16.458-19.216-26.642-2.678-0.156-5.356-0.452-8.002-0.912-11.754-2.046-22.714-7.146-31.886-14.542-3.128 5.72-6.958 10.998-11.346 15.75l34.398 34.476c5.852 5.864 5.84 15.362-0.026 21.212-5.864 5.852-15.362 5.842-21.214-0.024l-37.596-37.682c-7.154 3.382-14.886 5.734-23.012 6.834 3.51 17.9 12.196 34.766 25.632 48.234 17.678 17.72 41.164 27.478 66.13 27.478zM573.218 399.306h-13.002c-2.19 5.572-7.604 9.522-13.954 9.522s-11.764-3.952-13.954-9.522h-15.296c3.552 5.784 2.834 13.448-2.18 18.452-5.864 5.852-15.362 5.842-21.214-0.022l-14.138-14.168c-1.27-1.272-2.246-2.722-2.964-4.262h-30.53c-11.434 17.546-18.412 38.256-19.238 60.536h237.971c-0.826-22.28-7.804-42.99-19.238-60.536h-31.77c-0.716 1.54-1.696 2.992-2.964 4.264l-14.136 14.168c-5.854 5.862-15.348 5.878-21.212 0.024-5.018-5.004-5.736-12.67-2.182-18.456zM538.332 489.842c5.654 20.954 24.768 36.416 47.42 36.416 22.654 0 41.768-15.464 47.422-36.416h-94.842zM569.006 674.283c14.268-15.42 23.702-33.728 28.328-52.972-7.658-8.322-14.020-17.518-19.038-27.304-2.278 1.396-4.948 2.214-7.814 2.214h-19.988c-8.284 0-15-6.716-15-15s6.716-15 15-15h17.534c-0.986-4.142-1.752-8.334-2.308-12.558-5.956-1.564-11.644-3.792-16.968-6.628-9.998 17.254-26.554 30.112-46.17 35.27-0.006 0.042-0.014 0.084-0.022 0.126-1.176 6.788-3.228 13.228-6.026 19.214l72.472 72.638zM297.851 538.932c-0.88 2.46-1.546 4.984-1.984 7.516-4.302 24.802 12.418 48.498 37.264 52.824 2.62 0.456 5.282 0.688 7.91 0.688 9.882 0 19.326-3.152 27.308-9.114 3.302-2.468 7.478-3.466 11.542-2.762 4.064 0.706 7.658 3.052 9.938 6.49 7.042 10.622 17.816 17.67 30.336 19.85 2.626 0.458 5.294 0.688 7.928 0.688 22.224 0 41.112-15.9 44.908-37.81 0.436-2.51 0.66-5.126 0.664-7.776 0.014-7.764 5.952-14.236 13.688-14.916 16.77-1.474 31.046-12.028 37.664-26.896-8.86-10.634-15.002-23.618-17.334-37.872h-85.544c-10.636 0-19.762-6.566-23.568-15.858-18.82 12.818-41 19.724-64.244 19.724-14.562 0-28.828-2.742-42.412-8.15-2.304-0.92-4.364-2.278-6.12-4.034-1.78-1.78-3.146-3.866-4.042-6.154-3.452-8.706-5.754-17.656-6.998-26.662-5.376 6.12-9.164 13.73-10.644 22.27-3.528 20.352 7.126 40.616 25.9 49.28 7.056 3.256 10.458 11.36 7.84 18.674zM342.567 403.408l4.092-4.102h-36.026c-8.088 18.764-9.316 40.122-2.75 60.154 8.548 2.822 17.422 4.25 26.444 4.25 22.602 0 43.864-8.834 59.866-24.872 2.128-2.134 4.11-4.37 5.972-6.68 2.542-11.508 6.448-22.502 11.48-32.85h-22.606l-25.234 25.292c-5.854 5.862-15.352 5.878-21.212 0.024-5.866-5.854-5.878-15.352-0.026-21.216zM278.687 399.306h-53.474c2.384 14.53 11.124 26.916 23.256 34.22 7.182-9.622 16.556-17.402 27.356-22.672 0.764-3.892 1.702-7.75 2.862-11.548zM127.308 876.726h111.982v-62.078h-111.982v62.078zM218.557 784.649v-31.386h-70.516v31.386h70.516zM78.594 621.627h97.406c8.286 0 15 6.716 15 15s-6.714 15-15 15h-97.406v30.832c0 22.5 18.248 40.804 40.678 40.804h128.055c22.432 0 40.68-18.304 40.68-40.804v-30.832h-28.008c-8.286 0-15-6.716-15-15s6.714-15 15-15h28.008v-13.314c-17.186-16.85-26.112-41.56-21.704-66.978 0.008-0.050 0.018-0.102 0.026-0.154-24.064-16.51-36.886-45.862-31.78-75.328 0.298-1.72 0.672-3.412 1.080-5.086-7.494-4.132-14.224-9.468-19.992-15.712h-137.043v176.571zM78.592 415.058v0h119.628c-1.592-5.056-2.716-10.318-3.264-15.752h-2.528c-13.806 0-25.040-11.242-25.040-25.060 0-23.818 2.214-47.2 6.504-70.076-4.31 0.346-8.73 0.532-13.226 0.532-18.14 0-35.424-2.878-48.662-8.106-20.25-7.996-25.848-19.35-27.070-27.206-2.146-1.068-4.254-2.196-6.342-3.35v149.017zM268.533 230.789c5.402-4.322 8.704-7.996 10.618-10.646-0.18-0.002-0.368-0.004-0.558-0.004-8.49 0-23.744 3.422-41.090 13.024-6.458 3.578-12.408 7.62-17.208 11.686-5.596 4.742-13.802 4.738-19.394-0.002-4.8-4.070-10.748-8.11-17.2-11.68-17.35-9.606-32.604-13.028-41.092-13.028-0.194 0-0.38 0.002-0.562 0.004 1.912 2.65 5.214 6.326 10.618 10.65 4.722 3.78 6.712 10.028 5.046 15.842-1.668 5.816-6.664 10.062-12.674 10.766-14.638 1.716-23.894 5.442-28.228 8.154 5.43 3.382 19.158 9.148 43.862 9.148 20.46 0 35.414-4.302 42.586-8.33 4.562-2.56 10.124-2.56 14.686-0.002 7.176 4.028 22.132 8.33 42.592 8.33 24.706 0 38.432-5.768 43.86-9.148-4.332-2.714-13.59-6.438-28.232-8.154-6.010-0.706-11.008-4.95-12.674-10.768-1.672-5.816 0.318-12.064 5.044-15.842zM238.527 48.218l0.516-2.78c1.784-9.634 5.546-18.476 10.802-26.164h-89.232c-72.020 0-130.613 53.328-130.613 118.88 0 44.798 27.376 83.87 67.688 104.13 4.63-3.456 10.402-6.436 17.25-8.84-2.716-4.638-4.608-9.626-5.054-14.828-0.592-6.916 1.524-13.484 5.964-18.496 5.866-6.624 14.87-9.982 26.762-9.982 15.848 0 36.642 6.274 55.622 16.782 4.37 2.418 8.502 4.972 12.37 7.64 3.866-2.666 7.998-5.22 12.37-7.642 18.98-10.506 39.774-16.778 55.622-16.78h0.002c11.888 0 20.892 3.358 26.756 9.98 4.442 5.012 6.56 11.58 5.966 18.498-0.446 5.202-2.338 10.19-5.054 14.828 6.848 2.406 12.622 5.386 17.252 8.84 31.97-16.068 55.792-43.97 64.286-77.176l-106.090-40.302c-31.054-11.8-49.216-44.008-43.184-76.588zM790.833 33.39c-7.396-8.856-18.282-13.936-29.862-13.94l-15.744-0.006-9.836 53.11c-1.51 8.146-9.332 13.532-17.482 12.018-8.144-1.508-13.526-9.334-12.018-17.48l8.828-47.658-51.612-0.020-6.65 35.914c-1.51 8.146-9.334 13.526-17.482 12.018-8.144-1.508-13.526-9.334-12.018-17.48l5.64-30.464-120.050-0.046-9.036 48.776c-1.512 8.146-9.332 13.526-17.482 12.016-8.146-1.508-13.526-9.336-12.018-17.482l8.026-43.322-175.287-0.068c-0.004 0-0.008 0-0.012 0-18.744 0-34.808 13.3-38.204 31.632l-0.516 2.78c-3.39 18.312 6.846 36.426 24.34 43.074l58.954 22.396 4.392-23.704c1.338-7.222 7.642-12.27 14.73-12.27 0.908 0 1.828 0.084 2.752 0.254 8.144 1.51 13.524 9.336 12.014 17.482l-5.386 29.066 87.51 33.244c7.744 2.942 11.638 11.606 8.696 19.35-2.942 7.746-11.616 11.638-19.348 8.696l-40.722-15.47c-11.424 40.446-40.772 74.232-79.69 93.588-1.222 7.856-6.82 19.21-27.068 27.206-13.238 5.228-30.522 8.106-48.662 8.106-12.484 0-24.406-1.378-34.93-3.888v9.060c0 8.284-6.714 15-15 15-3.502 0-6.714-1.208-9.268-3.22-2.366 15.646-3.69 31.538-3.91 47.654h488.574c8.286 0 15 6.716 15 15s-6.714 15-15 15h-6.138c9.552 19.672 14.948 41.728 14.948 65.038 0 13.234-10.126 24.136-23.030 25.374 5.618 5.298 12.63 8.87 20.446 10.232 2.29 0.398 4.614 0.6 6.91 0.6 19.366 0 35.822-13.854 39.128-32.938 0.382-2.21 0.578-4.49 0.58-6.78 0.010-7.768 5.95-14.244 13.688-14.924 17.926-1.574 32.592-15.056 35.666-32.784 0.816-4.714 0.714-9.366-0.104-13.818h-16.094c-8.286 0-15-6.716-15-15s6.714-15 15-15h116.584c-0.372-27.516-3.916-54.394-10.526-80.472l-81.292-47.988c-4.972 17.304-16.528 31.982-32.45 40.894-17.858 9.994-39.080 11.556-58.22 4.286l-167.421-63.604c-7.746-2.942-11.638-11.606-8.696-19.35 2.942-7.746 11.614-11.634 19.348-8.696l22.056 8.378 6.848-36.974c1.338-7.222 7.642-12.272 14.732-12.272 0.906 0 1.826 0.084 2.75 0.254 8.144 1.508 13.526 9.334 12.018 17.48l-7.842 42.34 116.858 44.394c10.828 4.112 22.824 3.23 32.918-2.42 10.076-5.638 17.056-15.358 19.152-26.662l30.346-163.829c2.092-11.298-0.942-22.844-8.326-31.68zM844.353 150.801c-6.998-1.286-12.128-7.31-12.286-14.424-0.156-7.114 4.708-13.358 11.642-14.948l111.68-25.616-2.79-18.718-129.467 23.266-20.238 109.268 112.768 66.568 9.394-16.634-95.116-63.582c-5.914-3.954-8.238-11.518-5.562-18.11 2.674-6.592 9.614-10.4 16.61-9.114l149.411 27.446 3.328-17.96-149.373-27.442z" />
<glyph unicode="&#xe910;" glyph-name="magnifier" d="M902.497 250.883c162.002 162.005 161.999 425.609 0 587.614-162.005 162.005-425.606 162.005-587.607 0-137.439-137.439-158.255-341.847-62.502-501.467 0 0 6.878-11.539-2.411-20.822-52.995-52.991-211.988-211.988-211.988-211.988-42.194-42.191-52.239-101.189-14.821-138.614l6.442-6.436c37.418-37.424 96.419-27.383 138.61 14.811 0 0 158.657 158.66 211.543 211.543 9.735 9.735 21.27 2.857 21.27 2.857 159.617-95.75 364.024-74.938 501.464 62.502zM391.599 327.595c-119.705 119.705-119.702 314.477 0.003 434.182 119.705 119.702 314.477 119.705 434.179 0 119.705-119.702 119.705-314.477 0-434.182-119.705-119.699-314.474-119.699-434.182 0zM418.117 569.348c-5.572 0-11.236 1.095-16.695 3.401-21.808 9.23-32.011 34.393-22.781 56.204 58.012 137.093 216.738 201.429 353.828 143.417 21.808-9.23 32.011-34.393 22.781-56.204-9.233-21.811-34.39-32.008-56.208-22.781-93.533 39.578-201.838-4.318-241.413-97.851-6.924-16.359-22.804-26.186-39.513-26.186z" />
<glyph unicode="&#xe911;" glyph-name="email" d="M1023.244 739.402c0 1.17 0.805 2.309 0.752 3.466l-312.49-301.101 312.116-291.482c0.182 2.082-0.378 4.182-0.378 6.309v582.808zM663.805 395.432l-127.567-122.736c-6.455-6.211-14.793-9.325-23.134-9.325-8.168 0-16.336 2.981-22.747 8.956l-127.22 118.549-314.154-302.809c7.639-2.745 15.838-4.876 24.424-4.876h879.398c12.751 0 24.709 3.884 35.106 9.676l-324.106 302.564zM512.739 342.686l476.903 459.396c-10.797 6.42-23.366 10.726-36.837 10.726h-879.398c-17.542 0-33.616-6.811-46.135-17.199l485.467-452.923zM0 728.213v-571.611c0-6.562 1.508-12.888 3.145-18.934l310.256 298.769-313.402 291.776z" />
<glyph unicode="&#xe912;" glyph-name="maps-and-flags" d="M512 960c-204.49 0-370.854-166.364-370.854-370.852 0-253.776 331.878-626.334 346.008-642.070 13.272-14.782 36.444-14.756 49.692 0 14.13 15.736 346.008 388.294 346.008 642.070-0.004 204.488-166.366 370.852-370.854 370.852zM512 402.562c-102.884 0-186.584 83.702-186.584 186.586s83.702 186.584 186.584 186.584 186.582-83.702 186.582-186.586-83.7-186.584-186.582-186.584z" />
<glyph unicode="&#xe913;" glyph-name="facebook" d="M682.539 789.973h93.483v162.816c-16.128 2.219-71.595 7.211-136.192 7.211-134.784 0-227.115-84.779-227.115-240.597v-143.403h-148.736v-182.016h148.736v-457.984h182.357v457.941h142.72l22.656 182.016h-165.419v125.397c0.043 52.608 14.208 88.619 87.509 88.619z" />
<glyph unicode="&#xe914;" glyph-name="play_circle" d="M512 84.667q140 0 241 101t101 241-101 241-241 101-241-101-101-241 101-241 241-101zM512 852.667q176 0 301-125t125-301-125-301-301-125-301 125-125 301 125 301 301 125zM426 234.667v384l256-192z" />
<glyph unicode="&#xe915;" glyph-name="twitter" d="M1024 765.504c-38.080-16.704-78.656-27.776-120.96-33.152 43.52 25.984 76.736 66.816 92.352 116.032-40.576-24.192-85.376-41.28-133.12-50.816-38.528 41.024-93.44 66.432-153.344 66.432-116.224 0-209.792-94.336-209.792-209.984 0-16.64 1.408-32.64 4.864-47.872-174.528 8.512-328.96 92.16-432.704 219.584-18.112-31.424-28.736-67.392-28.736-106.112 0-72.704 37.44-137.152 93.248-174.464-33.728 0.64-66.816 10.432-94.848 25.856 0-0.64 0-1.472 0-2.304 0-102.016 72.768-186.752 168.192-206.272-17.088-4.672-35.712-6.912-55.040-6.912-13.44 0-27.008 0.768-39.744 3.584 27.2-83.136 104.384-144.256 196.16-146.24-71.424-55.872-162.112-89.536-260.288-89.536-17.216 0-33.728 0.768-50.24 2.88 92.992-59.968 203.2-94.208 322.048-94.208 386.304 0 597.504 320 597.504 597.376 0 9.28-0.32 18.24-0.768 27.136 41.664 29.568 76.672 66.496 105.216 108.992z" />
<glyph unicode="&#xe916;" glyph-name="linkedin" d="M1023.744-64v0.043h0.256v375.552c0 183.723-39.552 325.248-254.336 325.248-103.253 0-172.544-56.661-200.832-110.379h-2.987v93.227h-203.648v-683.648h212.053v338.517c0 89.131 16.896 175.317 127.275 175.317 108.757 0 110.379-101.717 110.379-181.035v-332.843zM16.896 619.648h212.309v-683.648h-212.309zM122.965 960c-67.883 0-122.965-55.083-122.965-122.965s55.083-124.117 122.965-124.117 122.965 56.235 122.965 124.117c-0.043 67.883-55.125 122.965-122.965 122.965z" />
<glyph unicode="&#xe917;" glyph-name="close_fullscreen" d="M938 792.667l-226-226 142-140h-342v342l140-142 226 226zM146 0.667l226 226 140-142v342h-342l142-140-226-226z" />
<glyph unicode="&#xe918;" glyph-name="youtube" d="M971.719 687.947c-11.062 41.127-43.488 73.547-84.609 84.621-75.123 20.555-375.621 20.555-375.621 20.555s-300.486 0-375.609-19.775c-40.33-11.062-73.547-44.279-84.609-85.4-19.77-75.117-19.77-230.9-19.77-230.9s0-156.568 19.77-230.9c11.074-41.121 43.488-73.541 84.615-84.615 75.908-20.561 375.615-20.561 375.615-20.561s300.486 0 375.609 19.775c41.127 11.068 73.547 43.488 84.621 84.609 19.764 75.123 19.764 230.9 19.764 230.9s0.791 156.574-19.775 231.691zM415.816 313.129v287.836l249.879-143.918z" />
<glyph unicode="&#xe919;" glyph-name="instagram" d="M1022.998 658.941c-2.399 54.409-11.198 91.815-23.802 124.227-13.003 34.405-33.006 65.208-59.215 90.815-25.607 26.005-56.613 46.212-90.619 59.012-32.6 12.604-69.811 21.403-124.22 23.802-54.815 2.602-72.217 3.204-211.244 3.204s-156.429-0.602-211.041-3.001c-54.409-2.399-91.815-11.205-124.22-23.802-34.413-13.003-65.216-33.006-90.822-59.215-26.005-25.607-46.204-56.613-59.012-90.619-12.604-32.608-21.403-69.811-23.802-124.22-2.602-54.815-3.204-72.217-3.204-211.244s0.602-156.429 3.001-211.041c2.399-54.409 11.205-91.815 23.809-124.227 13.003-34.405 33.202-65.208 59.207-90.815 25.607-26.005 56.613-46.212 90.619-59.012 32.608-12.604 69.811-21.403 124.227-23.802 54.604-2.407 72.014-3.001 211.041-3.001s156.429 0.594 211.041 3.001c54.409 2.399 91.815 11.198 124.22 23.802 68.818 26.607 123.227 81.016 149.834 149.826 12.596 32.608 21.403 69.818 23.802 124.227 2.399 54.612 3.001 72.014 3.001 211.041s-0.203 156.429-2.602 211.041zM930.785 240.86c-2.204-50.010-10.604-77.015-17.605-95.019-17.206-44.61-52.612-80.016-97.222-97.222-18.004-7.001-45.204-15.401-95.019-17.597-54.011-2.407-70.209-3.001-206.837-3.001s-153.030 0.594-206.845 3.001c-50.010 2.196-77.015 10.596-95.019 17.597-22.2 8.205-42.407 21.207-58.808 38.211-17.003 16.605-30.006 36.609-38.211 58.808-7.001 18.004-15.401 45.212-17.597 95.019-2.407 54.011-3.001 70.217-3.001 206.845s0.594 153.030 3.001 206.837c2.196 50.010 10.596 77.015 17.597 95.019 8.205 22.207 21.207 42.407 38.414 58.816 16.597 17.003 36.601 30.006 58.808 38.203 18.004 7.001 45.212 15.401 95.019 17.605 54.011 2.399 70.217 3.001 206.837 3.001 136.831 0 153.030-0.602 206.845-3.001 50.010-2.204 77.015-10.604 95.019-17.605 22.2-8.197 42.407-21.199 58.808-38.203 17.003-16.605 30.006-36.609 38.211-58.816 7.001-18.004 15.401-45.204 17.605-95.019 2.399-54.011 3.001-70.209 3.001-206.837s-0.602-152.631-3.001-206.642zM513.899 710.951c-145.224 0-263.051-117.82-263.051-263.051s117.828-263.051 263.051-263.051c145.231 0 263.051 117.82 263.051 263.051s-117.82 263.051-263.051 263.051zM513.899 277.265c-94.214 0-170.635 76.413-170.635 170.635s76.421 170.635 170.635 170.635c94.222 0 170.635-76.413 170.635-170.635s-76.413-170.635-170.635-170.635zM848.769 721.352c0-33.913-27.498-61.41-61.418-61.41-33.913 0-61.41 27.498-61.41 61.41 0 33.921 27.498 61.41 61.41 61.41 33.921 0 61.418-27.49 61.418-61.41z" />
<glyph unicode="&#xe91a;" glyph-name="search" d="M902.497 250.883c162.002 162.005 161.999 425.609 0 587.614-162.005 162.005-425.606 162.005-587.607 0-137.439-137.439-158.255-341.847-62.502-501.467 0 0 6.878-11.539-2.411-20.822-52.995-52.991-211.988-211.988-211.988-211.988-42.194-42.191-52.239-101.189-14.821-138.614l6.442-6.436c37.418-37.424 96.419-27.383 138.61 14.811 0 0 158.657 158.66 211.543 211.543 9.735 9.735 21.27 2.857 21.27 2.857 159.617-95.75 364.024-74.938 501.464 62.502zM391.599 327.595c-119.705 119.705-119.702 314.477 0.003 434.182 119.705 119.702 314.477 119.705 434.179 0 119.705-119.702 119.705-314.477 0-434.182-119.705-119.699-314.474-119.699-434.182 0zM418.117 569.348c-5.572 0-11.236 1.095-16.695 3.401-21.808 9.23-32.011 34.393-22.781 56.204 58.012 137.093 216.738 201.429 353.828 143.417 21.808-9.23 32.011-34.393 22.781-56.204-9.233-21.811-34.39-32.008-56.208-22.781-93.533 39.578-201.838-4.318-241.413-97.851-6.924-16.359-22.804-26.186-39.513-26.186z" />
<glyph unicode="&#xe91b;" glyph-name="play" d="M1023.734 464.706c-8.59 268.997-226.031 486.43-495.021 495.021-146.367 4.644-283.302-51.068-384.503-155.554-97.29-100.446-148.408-232.867-143.937-372.886 8.583-268.99 226.024-486.43 495.013-495.013 5.6-0.18 11.15-0.266 16.713-0.266 139.847 0 270.463 55.338 367.79 155.82 97.29 100.439 148.416 232.867 143.944 372.879zM802.34 166.84c-76.832-79.326-179.945-123.011-290.34-123.011-4.414 0-8.828 0.072-13.277 0.208-212.293 6.779-383.899 178.385-390.685 390.685-3.53 110.575 36.82 215.14 113.623 294.43 76.832 79.326 179.945 123.011 290.34 123.011 4.414 0 8.828-0.072 13.277-0.208 212.293-6.779 383.899-178.385 390.685-390.685 3.53-110.575-36.827-215.14-113.623-294.43zM679.933 477.746l-227.044 162.793c-24.218 17.368-57.933 0.058-57.933-29.746v-325.593c0-29.804 33.714-47.114 57.933-29.746l227.037 162.8c20.372 14.6 20.372 44.886 0.007 59.493z" />
<glyph unicode="&#xe91c;" glyph-name="silo" d="M900.042-31.662h-70.064v759.914c0 32.688-26.596 59.284-59.284 59.284h-26.948v26.948c0 32.688-26.596 59.284-59.284 59.284h-113.178v48.506c0 20.8-16.924 37.726-37.726 37.726h-43.116c-20.802 0-37.726-16.926-37.726-37.726v-48.506h-113.178c-32.688 0-59.284-26.596-59.284-59.284v-26.948h-26.948c-32.688 0-59.284-26.596-59.284-59.284v-759.914h-70.064c-8.932 0-16.168-7.236-16.168-16.168s7.236-16.168 16.168-16.168h172.26c0.146 0 0.298 0 0.444 0h301.57c8.932 0 16.168 7.236 16.168 16.168s-7.236 16.168-16.168 16.168h-283.628l24.956 212.13 70.042-63.036v-35.916c0-20.802 16.926-37.726 37.726-37.726h129.348c20.802 0 37.726 16.926 37.726 37.726v35.916l70.042 63.036 24.956-212.13h-46.492c-8.932 0-16.168-7.236-16.168-16.168s7.238-16.168 16.168-16.168h64.432c0.074 0 0.146-0.002 0.222-0.002s0.148 0.002 0.224 0.002h172.258c8.932 0 16.168 7.236 16.168 16.168-0.002 8.932-7.238 16.168-16.17 16.168zM485.052 922.274c0 2.972 2.416 5.39 5.39 5.39h43.116c2.972 0 5.39-2.416 5.39-5.39v-48.506h-53.894v48.506zM282.044-31.662h-55.686v314.014l83.758-75.384-28.072-238.63zM797.642-31.662h-55.686l-28.070 238.628 83.756 75.384v-314.012zM797.642 334.824h-377.264v350.312c0 8.932-7.236 16.168-16.168 16.168s-16.168-7.238-16.168-16.168v-350.316h-5.39c-8.932 0-16.168-7.236-16.168-16.168s7.236-16.168 16.168-16.168h389.024l-179.648-161.684h-101.586c-8.932 0-16.168-7.238-16.168-16.168s7.236-16.168 16.168-16.168h91.62v-26.948c0-2.972-2.416-5.39-5.39-5.39h-129.348c-2.972 0-5.39 2.416-5.39 5.39v43.116c0 4.584-1.944 8.95-5.35 12.016l-184.262 165.836h65.654c8.932 0 16.168 7.236 16.168 16.168s-7.236 16.168-16.168 16.168h-91.622v393.432c0 14.86 12.088 26.948 26.948 26.948h26.948v-350.316c0-8.932 7.236-16.168 16.168-16.168s16.168 7.236 16.168 16.168v350.316h70.064c8.932 0 16.168 7.238 16.168 16.168s-7.236 16.168-16.168 16.168h-70.064v26.948c0 14.86 12.088 26.948 26.948 26.948h344.926c14.86 0 26.948-12.088 26.948-26.948v-26.948h-264.082c-8.932 0-16.168-7.238-16.168-16.168s7.236-16.168 16.168-16.168h323.368c14.86 0 26.948-12.088 26.948-26.948v-393.428z" />
<glyph unicode="&#xe91d;" glyph-name="phone-call" d="M809.283 325.668c-20.964 21.828-46.25 33.499-73.049 33.499-26.583 0-52.085-11.454-73.914-33.283l-68.295-68.078c-5.619 3.026-11.238 5.835-16.641 8.645-7.78 3.89-15.129 7.564-21.396 11.454-63.972 40.631-122.109 93.581-177.869 162.092-27.015 34.147-45.17 62.892-58.353 92.068 17.722 16.209 34.147 33.067 50.14 49.276 6.051 6.051 12.103 12.319 18.154 18.37 45.386 45.386 45.386 104.171 0 149.557l-59.001 59.001c-6.7 6.7-13.616 13.616-20.099 20.532-12.967 13.4-26.583 27.231-40.631 40.199-20.964 20.748-46.034 31.77-72.401 31.77s-51.869-11.022-73.482-31.77c-0.216-0.216-0.216-0.216-0.432-0.432l-73.482-74.13c-27.664-27.664-43.441-61.379-46.899-100.497-5.187-63.108 13.4-121.893 27.664-160.363 35.012-94.445 87.313-181.975 165.333-275.772 94.662-113.032 208.558-202.29 338.664-265.182 49.708-23.557 116.058-51.437 190.188-56.192 4.539-0.216 9.293-0.432 13.616-0.432 49.924 0 91.852 17.938 124.703 53.598 0.216 0.432 0.648 0.648 0.864 1.081 11.238 13.616 24.206 25.935 37.821 39.118 9.293 8.861 18.803 18.154 28.096 27.88 21.396 22.261 32.634 48.195 32.634 74.778 0 26.799-11.454 52.518-33.283 74.13l-118.651 119.083zM886.654 98.092c-0.216 0-0.216-0.216 0 0-8.429-9.077-17.074-17.29-26.367-26.367-14.048-13.4-28.312-27.448-41.712-43.224-21.828-23.341-47.547-34.363-81.262-34.363-3.242 0-6.7 0-9.942 0.216-64.188 4.106-123.838 29.176-168.575 50.573-122.325 59.217-229.738 143.289-318.996 249.837-73.698 88.826-122.974 170.953-155.608 259.131-20.099 53.814-27.448 95.742-24.206 135.293 2.161 25.286 11.887 46.25 29.825 64.188l73.698 73.698c10.59 9.942 21.828 15.345 32.851 15.345 13.616 0 24.638-8.213 31.554-15.129 0.216-0.216 0.432-0.432 0.648-0.648 13.183-12.319 25.719-25.070 38.902-38.686 6.7-6.916 13.616-13.832 20.532-20.964l59.001-59.001c22.909-22.909 22.909-44.089 0-66.998-6.268-6.268-12.319-12.535-18.587-18.587-18.154-18.587-35.444-35.876-54.247-52.734-0.432-0.432-0.864-0.648-1.081-1.081-18.587-18.587-15.129-36.741-11.238-49.060 0.216-0.648 0.432-1.297 0.648-1.945 15.345-37.173 36.957-72.185 69.807-113.896l0.216-0.216c59.65-73.482 122.541-130.754 191.917-174.627 8.861-5.619 17.938-10.158 26.583-14.48 7.78-3.89 15.129-7.564 21.396-11.454 0.864-0.432 1.729-1.081 2.593-1.513 7.348-3.674 14.264-5.403 21.396-5.403 17.938 0 29.176 11.238 32.851 14.912l73.914 73.914c7.348 7.348 19.019 16.209 32.634 16.209 13.4 0 24.422-8.429 31.122-15.777 0.216-0.216 0.216-0.216 0.432-0.432l119.083-119.083c22.261-22.044 22.261-44.737 0.216-67.646zM553.394 716.417c56.624-9.509 108.061-36.309 149.124-77.372s67.646-92.5 77.372-149.124c2.377-14.264 14.696-24.206 28.744-24.206 1.729 0 3.242 0.216 4.971 0.432 15.993 2.593 26.583 17.722 23.99 33.715-11.671 68.511-44.089 130.97-93.581 180.462s-111.951 81.91-180.462 93.581c-15.993 2.593-30.905-7.997-33.715-23.773s7.564-31.122 23.557-33.715zM1022.811 508.292c-19.235 112.816-72.401 215.474-154.095 297.168s-184.352 134.86-297.168 154.095c-15.777 2.81-30.689-7.997-33.499-23.773-2.593-15.993 7.997-30.905 23.99-33.715 100.713-17.074 192.565-64.837 265.614-137.67 73.049-73.049 120.596-164.901 137.67-265.614 2.377-14.264 14.696-24.206 28.744-24.206 1.729 0 3.242 0.216 4.971 0.432 15.777 2.377 26.583 17.506 23.773 33.283z" />
<glyph unicode="&#xe91e;" glyph-name="loupe" d="M620 580c-11.040 0-20-8.96-20-20s8.96-20 20-20c11.040 0 20 8.96 20 20s-8.96 20-20 20zM1000.562 72.562l-266.96 266.96c43.49 65.508 66.398 141.368 66.398 220.478 0 220.56-179.44 400-400 400s-400-179.44-400-400 179.44-400 400-400c79.112 0 154.972 22.91 220.478 66.396l73.79-73.79c0.010-0.010 0.020-0.020 0.032-0.032l193.136-193.136c15.116-15.114 35.202-23.438 56.564-23.438s41.448 8.324 56.556 23.432c15.118 15.106 23.444 35.194 23.444 56.568s-8.326 41.462-23.438 56.562zM611.072 268.546c0-0.002-0.002-0.002-0.004-0.004-61.734-44.84-134.718-68.542-211.068-68.542-198.504 0-360 161.496-360 360s161.496 360 360 360 360-161.496 360-360c0-76.35-23.702-149.334-68.544-211.070-22.434-30.906-49.478-57.952-80.384-80.384zM653.032 250.414c20.7 16.934 39.622 35.856 56.554 56.554l56.742-56.742c-17.256-20.366-36.188-39.3-56.554-56.554l-56.742 56.742zM972.278-12.278c-7.56-7.56-17.602-11.722-28.278-11.722s-20.718 4.162-28.278 11.722l-177.59 177.59c20.254 17.382 39.174 36.3 56.554 56.554l177.596-177.596c7.556-7.548 11.718-17.586 11.718-28.27s-4.162-20.722-11.722-28.278zM400 880c-176.45 0-320-143.55-320-320s143.55-320 320-320 320 143.55 320 320-143.55 320-320 320zM400 280c-154.392 0-280 125.608-280 280s125.608 280 280 280 280-125.608 280-280-125.608-280-280-280zM624.13 645.854c-17.222 44.824-47.208 83.148-86.72 110.826-40.452 28.34-87.968 43.32-137.41 43.32-11.044 0-20-8.956-20-20s8.956-20 20-20c82.198 0 157.262-51.636 186.792-128.494 3.056-7.952 10.634-12.832 18.674-12.832 2.384 0 4.81 0.43 7.168 1.336 10.31 3.962 15.458 15.532 11.496 25.844z" />
<glyph unicode="&#xe91f;" glyph-name="camion" d="M246.938 289.048c-35.676 0-64.7-29.024-64.7-64.7 0-35.674 29.024-64.698 64.7-64.698 35.674 0 64.696 29.024 64.698 64.698 0 35.676-29.024 64.7-64.698 64.7zM246.938 189.648c-19.134 0-34.7 15.564-34.7 34.698s15.568 34.7 34.7 34.7c19.132 0 34.698-15.566 34.698-34.7s-15.564-34.698-34.698-34.698zM246.938 247.64c-8.286 0-15-6.714-15-15v-16.568c0-8.286 6.714-15 15-15 8.284 0 15 6.716 15 15v16.568c0 8.286-6.714 15-15 15zM246.938 338.748c-63.080 0-114.4-51.32-114.4-114.4s51.32-114.398 114.4-114.398c63.080 0 114.398 51.318 114.398 114.398s-51.318 114.4-114.398 114.4zM246.938 139.95c-46.538 0-84.4 37.862-84.4 84.398 0 46.538 37.862 84.4 84.4 84.4 46.536 0 84.398-37.862 84.398-84.4 0-46.536-37.86-84.398-84.398-84.398zM777.066 289.048c-35.674 0-64.698-29.024-64.698-64.7 0-35.674 29.024-64.698 64.698-64.698 35.676 0 64.7 29.024 64.7 64.698 0 35.676-29.024 64.7-64.7 64.7zM777.066 189.648c-19.134 0-34.698 15.564-34.698 34.698s15.566 34.7 34.698 34.7c19.134 0 34.7-15.566 34.7-34.7s-15.566-34.698-34.7-34.698zM777.066 247.64c-8.286 0-15-6.714-15-15v-16.568c0-8.286 6.714-15 15-15s15 6.716 15 15v16.568c0 8.286-6.714 15-15 15zM777.066 338.748c-63.080 0-114.398-51.32-114.398-114.4s51.318-114.398 114.398-114.398c63.080 0 114.4 51.318 114.4 114.398s-51.32 114.4-114.4 114.4zM777.066 139.95c-46.536 0-84.398 37.862-84.398 84.398 0 46.538 37.86 84.4 84.398 84.4 46.54 0 84.4-37.862 84.4-84.4 0-46.536-37.86-84.398-84.4-84.398zM990.294 427.272l-66.266 231.932c-1.842 6.438-7.726 10.878-14.424 10.878h-132.54c-8.286 0-15-6.714-15-15s6.714-15 15-15h121.224l62.582-219.034v-163.564c0-8.286 6.714-15 15-15 8.284 0 15 6.716 15.002 15v165.666c0 1.396-0.194 2.782-0.578 4.122zM716.688 670.082h-39.020c-26.54 0-48.134-21.594-48.134-48.134v-364.464c0-8.286 6.714-15 15-15 8.284 0 15 6.716 15 15.002v364.462c0 10 8.134 18.134 18.134 18.134h39.020c8.286 0 15 6.714 15 15s-6.714 15-15 15zM1009 272.482h-132.534c-8.286 0-15-6.714-15-15s6.714-15 15-15h117.534v-36.264h-117.534c-8.286 0-15-6.714-15-15s6.714-15 15-15h132.534c8.286 0 15 6.716 15 15v66.264c0 8.286-6.714 15-15 15zM147.536 206.218h-117.536v36.264h117.536c8.286 0 15 6.714 15 15s-6.714 15-15 15h-132.536c-8.286 0-15-6.714-15-15v-66.264c0-8.286 6.714-15 15-15h132.536c8.284 0 15 6.714 15 15s-6.714 15-15 15zM975.87 322.182h-51.268v19.706h51.266c8.286 0 15 6.714 15 15s-6.714 15-15 15h-66.266c-8.286 0-15-6.714-15-15v-49.706c0-8.286 6.714-15 15-15h66.268c8.284 0 15 6.714 15 15s-6.714 15-15 15zM924.070 487.844l-33.132 121.484c-1.778 6.524-7.706 11.052-14.47 11.052h-99.402c-8.286 0-15-6.714-15-15v-132.534c0-3.98 1.58-7.794 4.394-10.608l49.702-49.698c2.814-2.812 6.628-4.392 10.606-4.392h82.834c8.284 0 15 6.716 14.998 15.002v60.746c0 1.334-0.178 2.66-0.53 3.948zM894.602 438.148h-61.622l-40.914 40.91v111.32h72.946l29.59-108.494v-43.736zM727.37 603.816h-33.134c-8.286 0-15-6.714-15-15s6.714-15 15-15h33.134c8.284 0 15 6.716 15 15 0 8.286-6.714 15-15 15zM727.37 554.114h-33.134c-8.286 0-15-6.714-15-15s6.714-15 15-15h33.134c8.284 0 15 6.714 15 15s-6.714 15-15 15zM727.37 504.412h-33.134c-8.286 0-15-6.714-15-15s6.714-15 15-15h33.134c8.284 0 15 6.716 15 15 0 8.286-6.714 15-15 15zM777.066 405.018h-49.696c-8.286 0-15-6.714-15-15s6.714-15 15-15h49.696c8.286 0 15 6.714 15 15s-6.714 15-15 15zM683.34 272.488h-342.676c-8.286 0-15-6.714-15-15s6.714-15 15-15h342.676c8.286 0 15 6.716 15 15 0 8.286-6.714 15-15 15zM683.34 206.216h-342.676c-8.286 0-15-6.714-15-15s6.714-15 15-15h342.676c8.286 0 15 6.714 15 15s-6.714 15-15 15zM48.138 338.754c-8.286 0-15-6.716-15-15v-66.266c0-8.286 6.714-15 15-15s15 6.716 15 15v66.266c0 8.284-6.714 15-15 15zM97.838 338.754c-8.286 0-15-6.716-15-15v-66.266c0-8.286 6.714-15 15-15s15 6.716 15 15v66.266c0 8.284-6.714 15-15 15zM644.534 636.948h-66.264c-8.286 0-15-6.714-15-15s6.714-15 15-15h66.264c8.284 0 15 6.714 15 15s-6.714 15-15 15zM644.534 570.684h-66.264c-8.286 0-15-6.714-15-15s6.714-15 15-15h66.264c8.284 0 15 6.714 15 15s-6.714 15-15 15zM644.534 405.014h-66.264c-8.286 0-15-6.714-15-15s6.714-15 15-15h66.264c8.284 0 15 6.714 15 15s-6.714 15-15 15zM644.534 338.75h-66.264c-8.286 0-15-6.714-15-15s6.714-15 15-15h66.264c8.284 0 15 6.714 15 15s-6.714 15-15 15zM578.27 338.75c-8.286 0-15-6.714-15-15v-66.262c0-8.286 6.714-15 15-15 8.284 0 15 6.716 15 15v66.262c0 8.286-6.714 15-15 15zM511.998 736.354h-430.732c-44.81 0-81.266-36.456-81.266-81.266v-265.074c0-44.81 36.456-81.266 81.266-81.266h430.732c44.81 0 81.268 36.456 81.268 81.266v265.074c0 44.81-36.458 81.266-81.268 81.266zM563.266 390.014c0-28.268-22.998-51.266-51.268-51.266h-430.732c-28.268 0-51.266 22.998-51.266 51.266v265.074c0 28.268 22.998 51.266 51.266 51.266h430.732c28.27 0 51.268-22.998 51.268-51.266v-265.074zM114.4 736.352c-8.286 0-15-6.714-15-15v-397.594c0-8.286 6.714-15 15-15s15 6.714 15 15v397.594c0 8.286-6.714 15-15 15zM180.66 736.352c-8.286 0-15-6.714-15-15v-397.594c0-8.286 6.714-15 15-15s15 6.714 15 15v397.594c0 8.286-6.714 15-15 15zM180.662 438.154h-66.264c-8.286 0-15-6.714-15-15 0-8.284 6.714-15 15-15h66.264c8.286 0 15 6.716 15 15 0 8.286-6.714 15-15 15zM180.662 636.95h-66.264c-8.286 0-15-6.714-15-15s6.714-15 15-15h66.264c8.286 0 15 6.714 15 15s-6.714 15-15 15zM346.336 786.050h-99.402c-8.286 0-15-6.714-15-15v-49.694c0-8.284 6.714-15 15-15s15 6.716 15 15v34.696h69.402v-34.696c0-8.284 6.716-15 15-15 8.286 0 15 6.714 15 14.998v49.696c0 8.286-6.714 15-15 15zM478.864 736.352c-8.286 0-15-6.714-15-15v-397.594c0-8.286 6.714-15 15-15 8.284 0 15 6.714 15 15v397.594c0 8.286-6.714 15-15 15zM412.602 736.352c-8.286 0-15-6.714-15-15v-397.594c0-8.286 6.714-15 15-15 8.284 0 15 6.714 15 15v397.594c0 8.286-6.714 15-15 15zM478.866 438.154h-66.264c-8.286 0-15-6.714-15-15 0-8.284 6.714-15 15-15h66.264c8.284 0 15 6.716 15 15 0 8.286-6.714 15-15 15zM478.866 636.95h-66.264c-8.286 0-15-6.714-15-15s6.714-15 15-15h66.264c8.284 0 15 6.714 15 15s-6.714 15-15 15zM362.902 786.050h-132.534c-8.286 0-15-6.714-15-15s6.714-15 15-15h132.534c8.286 0 15 6.714 15 15s-6.714 15-15 15z" />
<glyph unicode="&#xe920;" glyph-name="voirie" d="M974.042 336.834l-213.882 106.942-142.534 399.14c-15.916 44.5-58.334 74.416-105.626 74.416s-89.708-29.916-105.626-74.438l-142.532-399.12-213.884-106.94c-30.832-15.418-49.958-46.376-49.958-80.834 0-34.416 19.126-65.396 49.958-80.834l331.25-165.626c40.416-20.188 85.626-30.876 130.792-30.876s90.376 10.688 130.792 30.876l331.25 165.626c30.834 15.438 49.958 46.418 49.958 80.834 0 34.458-19.124 65.416-49.958 80.834zM446.542 828.542c9.876 27.584 36.166 46.126 65.458 46.126s55.584-18.542 65.458-46.104l35.206-98.586c-15.812-11.32-46.558-25.978-100.664-25.978-54.102 0-84.844 14.658-100.658 25.974l35.2 98.568zM396.626 688.766c23.494-14.054 60.052-27.432 115.376-27.432 55.326 0 91.886 13.378 115.38 27.432l36.792-103.032c-21.95-31.532-81.098-52.402-152.172-52.402-71.070 0-130.218 20.868-152.17 52.396l36.794 103.038zM343.606 540.304c36.046-31.226 96.338-49.638 168.394-49.638s132.348 18.408 168.396 49.638l38.89-108.906c-23.42-34.27-94.914-68.732-207.286-68.732-112.37 0-183.86 34.46-207.284 68.732l38.89 108.906zM288.412 385.74c38.424-34.868 110.968-65.74 223.588-65.74 112.622 0 185.17 30.872 223.592 65.74l32.284-90.406c-5.042-63.188-153.292-103.334-255.876-103.334s-250.834 40.146-255.876 103.334l32.288 90.406zM954.958 213.334l-331.25-165.626c-69-34.5-154.416-34.5-223.416 0l-331.25 165.626c-16.25 8.146-26.376 24.5-26.376 42.666 0 18.188 10.126 34.542 26.376 42.666l174.062 87.032-28.52-79.864c-0.834-2.292-1.25-4.73-1.25-7.166 0-101.876 178.208-149.334 298.666-149.334s298.666 47.458 298.666 149.334c0 2.438-0.416 4.876-1.25 7.166l-28.518 79.864 174.060-87.032c16.25-8.126 26.376-24.48 26.376-42.666 0-18.166-10.126-34.52-26.376-42.666z" />
<glyph unicode="&#xe921;" glyph-name="technical-support" d="M180.102 168.102c-14.336 0-28.117-3.578-40.344-10.297-64.406 82.563-99.758 185.125-99.758 290.195 0 260.266 211.734 472 472 472 31.641 0 63.266-3.148 94-9.359 10.813-2.188 21.375 4.813 23.563 15.641s-4.813 21.375-15.641 23.57c-33.336 6.734-67.625 10.148-101.922 10.148-136.758 0-265.336-53.258-362.039-149.961s-149.961-225.281-149.961-362.039c0-115.039 39.063-227.305 110.18-317.305-9.156-13.68-14.078-29.758-14.078-46.594 0-22.438 8.742-43.531 24.609-59.391 15.859-15.867 36.953-24.609 59.391-24.609s43.531 8.742 59.398 24.609c15.867 15.859 24.602 36.961 24.602 59.398 0 22.43-8.734 43.531-24.602 59.391-15.867 15.867-36.961 24.602-59.398 24.602zM211.211 52.992c-8.305-8.313-19.359-12.891-31.109-12.891s-22.797 4.578-31.109 12.891-12.891 19.359-12.891 31.109c0 11.758 4.578 22.805 12.891 31.117 8.305 8.313 19.359 12.883 31.109 12.883s22.797-4.578 31.109-12.883c8.313-8.313 12.891-19.359 12.891-31.117 0-11.75-4.578-22.797-12.891-31.109zM913.805 765.328c21.742 32.617 18.25 77.211-10.508 105.969-15.867 15.859-36.961 24.602-59.398 24.602s-43.531-8.742-59.398-24.602c-15.867-15.867-24.602-36.961-24.602-59.398s8.734-43.531 24.602-59.398 36.961-24.602 59.398-24.602c14.336 0 28.117 3.578 40.344 10.297 64.406-82.57 99.758-185.125 99.758-290.195 0-260.266-211.734-472-472-472-31.328 0-62.656 3.086-93.102 9.18-10.828 2.164-21.367-4.859-23.539-15.688-2.164-10.836 4.859-21.367 15.688-23.539 33.023-6.602 66.992-9.953 100.953-9.953 136.758 0 265.336 53.258 362.039 149.961s149.961 225.281 149.961 362.039c0 115.047-39.070 227.32-110.195 317.328zM812.789 780.781c-8.313 8.313-12.891 19.359-12.891 31.117 0 11.75 4.578 22.797 12.891 31.109 8.305 8.313 19.359 12.891 31.109 12.891s22.805-4.578 31.117-12.891c17.148-17.156 17.148-45.070 0-62.227-8.313-8.305-19.367-12.883-31.117-12.883-11.758 0-22.805 4.578-31.109 12.883zM429.469 104c0-11.047 8.961-20 20-20h125.055c11.047 0 20 8.953 20 20v38.773c26.297 7.078 51.438 17.5 75.063 31.109l27.375-27.375c3.75-3.75 8.836-5.859 14.148-5.859 5.297 0 10.391 2.109 14.141 5.867l88.391 88.453c7.805 7.813 7.805 20.477 0 28.281l-27.344 27.344c13.609 23.625 24.031 48.766 31.109 75.063h38.625c11.047 0 20 8.953 20 20v125.055c0 11.047-8.953 20-20 20h-38.633c-7.078 26.289-17.492 51.43-31.102 75.055l27.195 27.195c3.75 3.75 5.859 8.844 5.859 14.148-0.008 5.305-2.117 10.398-5.867 14.148l-88.461 88.391c-7.805 7.805-20.469 7.805-28.281-0.008l-27.156-27.164c-23.625 13.609-48.766 24.031-75.063 31.109v38.414c0 11.047-8.953 20-20 20h-125.055c-11.039 0-20-8.953-20-20v-38.422c-26.289-7.070-51.43-17.492-75.055-31.102l-27.164 27.164c-7.805 7.805-20.469 7.813-28.281 0.008l-88.453-88.398c-3.758-3.75-5.867-8.836-5.867-14.141s2.109-10.398 5.859-14.148l27.195-27.195c-13.609-23.625-24.031-48.758-31.109-75.055h-38.555c-11.047 0-20-8.953-20-19.992l-0.070-125.055c-0.008-5.305 2.102-10.398 5.852-14.148s8.836-5.859 14.148-5.859h38.625c7.078-26.297 17.5-51.438 31.109-75.063l-27.344-27.344c-7.805-7.805-7.813-20.469 0-28.281l88.391-88.453c3.75-3.75 8.836-5.867 14.141-5.867h0.008c5.305 0 10.391 2.109 14.141 5.859l27.367 27.375c23.633-13.609 48.773-24.031 75.063-31.109zM362.25 215.945c-7.914 5.117-18.328 4.008-25-2.656l-24.352-24.352-60.117 60.164 24.328 24.336c6.664 6.664 7.773 17.078 2.656 24.992-18.133 28.063-30.883 58.82-37.883 91.43-1.984 9.211-10.125 15.797-19.555 15.797h-34.352l0.047 85.055h34.305c9.43 0 17.57 6.578 19.555 15.797 7 32.602 19.75 63.359 37.883 91.422 5.117 7.914 4.008 18.328-2.656 24.992l-24.172 24.18 60.164 60.117 24.148-24.156c6.672-6.664 17.078-7.766 25-2.656 28.055 18.133 58.813 30.883 91.422 37.883 9.211 1.984 15.797 10.133 15.797 19.555v34.156h85.055v-34.148c0-9.43 6.578-17.578 15.797-19.555 32.602-7.008 63.367-19.75 91.422-37.883 7.914-5.117 18.328-4.016 24.992 2.656l24.156 24.148 60.164-60.117-24.172-24.172c-6.672-6.672-7.773-17.086-2.656-25 18.133-28.063 30.875-58.82 37.883-91.422 1.977-9.219 10.125-15.797 19.555-15.797h34.367v-85.055h-34.367c-9.43 0-17.57-6.586-19.555-15.797-7-32.602-19.75-63.367-37.883-91.422-5.117-7.922-4.008-18.336 2.656-25l24.328-24.328-60.117-60.164-24.352 24.344c-6.672 6.672-17.086 7.773-25 2.656-28.063-18.133-58.82-30.875-91.422-37.883-9.219-1.984-15.797-10.125-15.797-19.555v-34.508h-85.055v34.508c0 9.422-6.586 17.57-15.797 19.555-32.602 7-63.359 19.75-91.422 37.883zM677.258 448c0 91.125-74.133 165.258-165.258 165.258s-165.258-74.133-165.258-165.258 74.133-165.258 165.258-165.258 165.258 74.133 165.258 165.258zM386.742 448c0 69.070 56.188 125.258 125.258 125.258s125.258-56.195 125.258-125.258-56.188-125.258-125.258-125.258-125.258 56.188-125.258 125.258zM696.156 884.359c5.266 0 10.422 2.141 14.141 5.859 3.719 3.742 5.859 8.898 5.859 14.164 0 5.234-2.133 10.398-5.859 14.141-3.719 3.719-8.875 5.859-14.141 5.859-5.281 0-10.414-2.141-14.133-5.859-3.727-3.742-5.867-8.883-5.867-14.141 0-5.281 2.141-10.422 5.867-14.164 3.719-3.719 8.852-5.859 14.133-5.859zM328.719 11.281c-5.258 0-10.422-2.141-14.141-5.859s-5.859-8.883-5.859-14.141c0-5.281 2.141-10.422 5.859-14.141s8.883-5.859 14.141-5.859 10.422 2.141 14.141 5.859c3.719 3.719 5.859 8.883 5.859 14.141s-2.141 10.422-5.859 14.141c-3.719 3.719-8.883 5.859-14.141 5.859z" />
<glyph unicode="&#xe922;" glyph-name="elevage" d="M827.814 960c-108.208 0-196.244-88.010-196.244-196.192v-87.164s-139.662 73.824-142.13 75.186c-19.088 10.532-24.37 10.534-43.462 0-2.468-1.362-272.282-143.916-272.282-143.916-22.874-12.034-26.090-15.49-35.756-31.566-1.576-2.622-131.396-208.46-131.396-208.46-6.35-10.046-8.154-21.924-5.078-33.444 3.234-12.112 11.68-22.538 23.154-28.59 7.292-3.86 15.164-5.7 22.93-5.7 12.404 0 24.51 4.716 33.49 13.376v-130.088c0-8.284 6.716-15 15-15s15 6.716 15 15v175.082s98.268 155.71 99.304 157.364c4.668 7.458 6.656 10.566 8.992 12.636 2.666 2.362 7.33 4.928 17.33 10.214l226.004 119.298c1.602 0.85 2.98 1.606 4.186 2.266 0.282 0.154 0.57 0.312 0.856 0.468 0.286-0.156 0.574-0.314 0.856-0.468 1.206-0.662 2.584-1.416 4.218-2.284 0 0 236.386-124.826 239.284-126.62 1.738-1.076 3.018-1.99 4.018-2.876 2.334-2.070 4.324-5.178 8.992-12.636 1.036-1.654 99.302-157.362 99.302-157.362v-321.432h-169.842v208.68h25.25c15.304 0 27.756 12.452 27.756 27.756v42.86c0 15.304-12.452 27.756-27.756 27.756h-170.244c-8.284 0-15-6.716-15-15s6.716-15 15-15h168v-38.372h-419.62v38.372h182.4c8.284 0 15 6.716 15 15s-6.716 15-15 15h-184.644c-15.304 0-27.756-12.452-27.756-27.756v-42.86c0-15.304 12.452-27.756 27.756-27.756h25.25v-208.678h-169.894v77.126c0 8.284-6.716 15-15 15s-15-6.716-15-15v-153.072c0-13.868 11.282-25.148 25.148-25.148h891.814c14.334 0 25.998 11.664 25.998 25.998v801.81c0.002 108.182-88.008 196.192-196.184 196.192zM280.934-34h-169.896v41.092h169.894v-41.092zM600.5 245.772l-132.764-119.69-132.764 119.69zM310.934 227.054l134.402-121.168-134.402-121.168zM334.974-34l132.764 119.69 132.762-119.69zM624.54-15.282l-134.402 121.168 134.402 121.168zM824.378-34h-169.838v41.092h169.838zM931.268 363.646c-0.694 1.44-1.466 2.854-2.332 4.234l-103.89 164.532h168.954v-168.766zM661.572 763.808c0 91.638 74.576 166.192 166.244 166.192 91.632 0 166.184-74.552 166.184-166.192v-2.574h-332.428zM661.572 731.234h332.428v-168.824h-187.898s-7.046 11.312-8.624 13.932c-9.662 16.072-12.88 19.532-35.736 31.556l-100.172 52.9v70.436zM852.064 370.88s-100.55 159.312-101.56 160.926c-9.598 15.33-13.028 19.65-26.562 27.384-1.042 0.594-239.858 126.816-240.964 127.422-10.202 5.59-15.694 6.64-24.134 3.144-0.074-0.030-0.152-0.068-0.226-0.1-1.232-0.518-235.97-124.394-235.97-124.394-23.454-12.4-25.922-14.59-37.736-33.458-1.010-1.614-101.56-160.926-101.56-160.926-0.020-0.032-0.032-0.066-0.052-0.098l-20.588-32.62c-4.75-7.534-15.77-10.192-24.078-5.788-4.12 2.172-7.104 5.746-8.186 9.802-0.632 2.368-0.892 5.968 1.458 9.686 0 0 130.074 206.248 131.744 209.024 6.896 11.468 6.896 11.468 24.034 20.486 0 0 278.386 147.278 280.024 148.026 1.64-0.748 280.024-148.026 280.024-148.026 0.006-0.004 0.014-0.008 0.022-0.012 17.118-9.004 17.118-9.004 24.014-20.476 1.668-2.776 3.632-6.040 6.116-9.974l125.666-199.018c2.336-3.72 2.068-7.338 1.432-9.718-1.088-4.064-4.064-7.64-8.144-9.798-8.452-4.462-19.29-1.848-24.138 5.792l-20.584 32.614c-0.020 0.034-0.032 0.070-0.052 0.1zM994-34h-139.622v168.822h139.622zM854.378 164.822v148.778c14.626-14.084 37.526-17.748 56.476-7.75 11.2 5.93 19.492 16.032 22.876 27.794h60.27v-168.824h-139.622zM570.524 484.254c0 56.694-46.124 102.818-102.816 102.818-56.662 0-102.758-46.124-102.758-102.818s46.098-102.818 102.758-102.818c56.694 0.002 102.816 46.126 102.816 102.818zM394.95 484.254c0 40.152 32.64 72.818 72.758 72.818 40.15 0 72.816-32.666 72.816-72.818s-32.666-72.818-72.816-72.818c-40.118 0.002-72.758 32.668-72.758 72.818z" />
<glyph unicode="&#xe923;" glyph-name="down" d="M316 572.667l196-196 196 196 60-60-256-256-256 256z" />
<glyph unicode="&#xe924;" glyph-name="up" d="M316 280.667l-60 60 256 256 256-256-60-60-196 196z" />
<glyph unicode="&#xe925;" glyph-name="check" d="M384 248.667l452 452 60-60-512-512-238 238 60 60z" />
<glyph unicode="&#xe926;" glyph-name="close" d="M810 664.667l-238-238 238-238-60-60-238 238-238-238-60 60 238 238-238 238 60 60 238-238 238 238z" />
<glyph unicode="&#xe927;" glyph-name="zoom_out" d="M298 554.667h214v-42h-214v42zM406 340.667q80 0 136 56t56 136-56 136-136 56-136-56-56-136 56-136 136-56zM662 340.667l212-212-64-64-212 212v34l-12 12q-76-66-180-66-116 0-197 80t-81 196 81 197 197 81 196-81 80-197q0-42-20-95t-46-85l12-12h34z" />
<glyph unicode="&#xe928;" glyph-name="zoom_in" d="M512 512.667h-86v-86h-42v86h-86v42h86v86h42v-86h86v-42zM406 340.667q80 0 136 56t56 136-56 136-136 56-136-56-56-136 56-136 136-56zM662 340.667l212-212-64-64-212 212v34l-12 12q-76-66-180-66-116 0-197 80t-81 196 81 197 197 81 196-81 80-197q0-42-20-95t-46-85l12-12h34z" />
<glyph unicode="&#xe92a;" glyph-name="fullscreen" d="M598 724.667h212v-212h-84v128h-128v84zM726 212.667v128h84v-212h-212v84h128zM214 512.667v212h212v-84h-128v-128h-84zM298 340.667v-128h128v-84h-212v212h84z" />
</font>
</defs>
</svg>
